<?xml version="1.0" standalone="no"?>
<!DOCTYPE svg PUBLIC "-//W3C//DTD SVG 1.1//EN" "http://www.w3.org/Graphics/SVG/1.1/DTD/svg11.dtd" >
<svg xmlns="http://www.w3.org/2000/svg" xmlns:xlink="http://www.w3.org/1999/xlink" version="1.1">
<metadata>
Created by FontForge 20170731 at Wed Jul 12 22:59:18 2023
 By Aleksey,,,
_null_name_substitute_
</metadata>
<defs>
<font id="NeoSansStdRegular" horiz-adv-x="1236" >
  <font-face 
    font-family="Neo Sans Std"
    font-weight="400"
    font-stretch="normal"
    units-per-em="2048"
    panose-1="0 0 5 0 0 0 0 0 0 0"
    ascent="1638"
    descent="-410"
    x-height="1126"
    cap-height="1522"
    bbox="-90 -442 1901 2007"
    underline-thickness="100"
    underline-position="-255"
    unicode-range="U+000D-FB04"
  />
<missing-glyph horiz-adv-x="747" 
d="M68 0v1366h544v-1366h-544zM135 68h410v1228h-410v-1228z" />
    <glyph glyph-name="uniFB01" unicode="fi" horiz-adv-x="1284" 
d="M51 1034v56q0 18 10 26q13 10 29 10h199v148q0 156 71 221q70 64 215 64q52 0 115 -13q39 -9 39 -33v-67q0 -31 -37 -31h-98q-72 0 -98 -29q-27 -30 -27 -112v-148h612q17 0 29 -12t12 -29v-1044q0 -17 -12 -29t-29 -12h-98q-17 0 -29 12t-12 29v934h-473v-934
q0 -17 -12 -29t-27 -12h-100q-17 0 -29 12t-12 29v934l-199 22q-15 3 -29 13q-10 7 -10 24zM940 1348v163q0 17 12 29t29 12h104q17 0 29 -12t12 -29v-163q0 -17 -12 -29t-29 -12h-104q-17 0 -29 12t-12 29z" />
    <glyph glyph-name="uniFB02" unicode="fl" horiz-adv-x="1280" 
d="M51 1034v56q0 18 10 26q13 10 29 10h199v148q0 155 78 221q76 64 221 64q226 0 391 -19h106q15 0 25 -10q12 -12 12 -29v-1460q0 -16 -10 -29q-9 -12 -27 -12h-106q-15 0 -27 12q-10 10 -10 29v1374h-336q-77 0 -106 -29q-31 -31 -31 -112v-148h215q16 0 29 -10
q10 -8 10 -26v-80q0 -18 -10 -25q-13 -10 -29 -10h-215v-934q0 -17 -12 -29t-27 -12h-100q-17 0 -29 12t-12 29v934l-199 22q-15 3 -29 13q-10 7 -10 24z" />
    <glyph glyph-name=".notdef" horiz-adv-x="747" 
d="M68 0v1366h544v-1366h-544zM135 68h410v1228h-410v-1228z" />
    <glyph glyph-name="glyph1" horiz-adv-x="2048" 
 />
    <glyph glyph-name="glyph1" horiz-adv-x="2048" 
 />
    <glyph glyph-name="uni000D" unicode="&#xd;" horiz-adv-x="2048" 
 />
    <glyph glyph-name="space" unicode=" " horiz-adv-x="503" 
 />
    <glyph glyph-name="exclam" unicode="!" horiz-adv-x="442" 
d="M131 1501q0 17 12 29q10 10 29 10h102q19 0 29 -10q12 -12 12 -29l-16 -1065q0 -18 -10 -28q-11 -11 -29 -11h-74q-15 0 -28 13t-13 26zM135 39v192q0 17 10 27q12 12 29 12h98q15 0 27 -12t12 -27v-192q0 -17 -12 -29q-10 -10 -27 -10h-98q-17 0 -27 10q-12 12 -12 29z
" />
    <glyph glyph-name="quotedbl" unicode="&#x22;" horiz-adv-x="739" 
d="M59 1096q0 14 2 18l95 387q9 39 41 39h114q23 0 23 -22q0 -13 -2 -17l-119 -387q-7 -24 -14 -31q-8 -8 -25 -8h-96q-19 0 -19 21zM408 1096q0 14 2 18l94 387q9 39 41 39h114q23 0 23 -22q0 -13 -2 -17l-119 -387q-7 -24 -14 -31q-8 -8 -25 -8h-96q-18 0 -18 21z" />
    <glyph glyph-name="numbersign" unicode="#" horiz-adv-x="1349" 
d="M94 461v4l4 43q3 19 13 29t28 10h191l37 414h-193q-15 0 -24 12t-9 26v5l4 45q3 21 13 28q13 10 28 10h191l35 396q3 15 14 26q13 13 25 13h92q11 0 22 -11q8 -8 8 -24v-4l-34 -396h317l35 396q3 16 12 28q8 11 27 11h90q11 0 22 -11q9 -9 9 -24v-4l-35 -396h201
q13 0 22 -12q10 -13 10 -26v-5l-4 -45q-4 -22 -12 -28q-13 -10 -29 -10h-198l-37 -414h200q14 0 23 -12q10 -13 10 -27v-4l-4 -43q-3 -20 -12 -29q-10 -10 -29 -10h-201l-32 -383q-3 -17 -11 -27q-9 -12 -26 -12h-90q-13 0 -23 10t-10 25v4l33 383h-318l-33 -383
q-3 -15 -12 -27t-24 -12h-93q-12 0 -22 10t-10 25v4l32 383h-190q-14 0 -23 12q-10 13 -10 27zM492 547h317l37 414h-318z" />
    <glyph glyph-name="dollar" unicode="$" 
d="M160 1174q0 310 368 356v176q0 16 13 29q12 12 28 12h97q16 0 28 -12q13 -13 13 -29v-170q152 -6 299 -27q34 -6 34 -34v-89q0 -14 -10 -24q-8 -8 -24 -8h-5q-270 18 -352 18q-158 0 -231 -45q-70 -43 -70 -153q0 -69 49 -121q50 -53 174 -127l189 -113
q181 -106 250 -199q71 -95 71 -219q0 -49 -10 -104q-7 -39 -37 -101q-23 -47 -67 -88q-42 -39 -109 -67q-71 -30 -151 -41v-193q0 -15 -13 -28t-28 -13h-97q-15 0 -28 13t-13 28v185q-138 3 -292 28q-23 3 -31 11t-8 26v84q0 33 34 33h7q211 -18 337 -18q173 0 242 63
q70 64 70 182q0 77 -51 131q-55 58 -195 144l-199 121q-142 85 -215 178q-67 85 -67 205z" />
    <glyph glyph-name="percent" unicode="%" horiz-adv-x="1624" 
d="M92 1016v190q0 167 72 248q73 82 205 82t202 -82q72 -84 72 -248v-190q0 -164 -72 -248t-202 -84t-205 84q-72 81 -72 248zM219 1016q0 -215 150 -215q147 0 147 215v190q0 215 -147 215q-150 0 -150 -215v-190zM299 8q0 14 8 25l856 1450q17 25 23 30q9 9 24 9h105
q16 0 16 -13q0 -3 -10 -26l-856 -1450q-13 -23 -23 -33q-8 -8 -22 -8h-101q-20 0 -20 16zM983 317v191q0 167 72 248q75 84 205 84q132 0 202 -82q72 -84 72 -250v-191q0 -163 -72 -247t-202 -84t-205 84q-72 81 -72 247zM1110 317q0 -215 150 -215q147 0 147 215v191
q0 215 -147 215q-150 0 -150 -215v-191z" />
    <glyph glyph-name="ampersand" unicode="&#x26;" horiz-adv-x="1386" 
d="M109 360v17q0 125 67 213q66 87 227 190l-14 17q-133 151 -174 235q-39 79 -39 162v16q0 159 115 242q116 84 315 84q124 0 207 -35q91 -39 145 -110q56 -74 56 -181v-16q0 -110 -64 -195q-66 -87 -250 -211l-57 -38l371 -400q80 145 80 361v28q0 33 32 33h88
q35 0 35 -33v-28q0 -281 -129 -471l183 -195q10 -10 10 -22q0 -9 -8 -17q-6 -6 -15 -6h-141q-19 0 -33 14l-102 111q-165 -139 -404 -139q-103 0 -184 20q-94 23 -160 62q-70 41 -114 116q-43 73 -43 176zM297 360q0 -118 88 -176q86 -57 225 -57q183 0 305 104l-407 437
q-122 -76 -166 -138q-45 -64 -45 -153v-17zM344 1194q0 -59 31 -123q31 -63 143 -184l21 -23l69 43q150 93 191 146q45 57 45 141v16q0 98 -64 144q-62 45 -174 45q-262 0 -262 -189v-16z" />
    <glyph glyph-name="quotesingle" unicode="'" horiz-adv-x="391" 
d="M59 1096q0 14 2 18l95 387q9 39 41 39h114q23 0 23 -22q0 -13 -2 -17l-119 -387q-7 -24 -14 -31q-8 -8 -25 -8h-96q-19 0 -19 21z" />
    <glyph glyph-name="parenleft" unicode="(" horiz-adv-x="622" 
d="M123 543v26q0 276 76 529q77 258 211 420q19 22 47 22h96q20 0 20 -16q0 -12 -6 -21q-264 -387 -264 -934v-26q0 -547 264 -934q6 -9 6 -21q0 -16 -20 -16h-96q-28 0 -47 22q-134 162 -211 420q-76 253 -76 529z" />
    <glyph glyph-name="parenright" unicode=")" horiz-adv-x="622" 
d="M80 -412q0 12 6 21q264 387 264 934v26q0 547 -264 934q-6 9 -6 21q0 16 20 16h97q28 0 47 -22q134 -163 211 -418q75 -250 75 -531v-26q0 -281 -75 -531q-77 -255 -211 -418q-19 -22 -47 -22h-97q-20 0 -20 16z" />
    <glyph glyph-name="asterisk" unicode="*" horiz-adv-x="950" 
d="M96 1225v6q0 1 1 2t1 2l19 59q6 21 26 21q3 0 19 -4l254 -84v268q0 39 30 39h62q14 0 22 -10q10 -13 7 -29v-268l256 84q16 4 18 4q21 0 27 -21l18 -59q2 -2 2 -10q0 -18 -29 -31l-256 -80l158 -217q10 -13 10 -27q0 -13 -12 -22l-49 -37q-9 -6 -16 -6q-20 0 -31 20
l-156 217l-155 -217q-11 -20 -31 -20q-8 0 -17 6l-51 37q-12 9 -12 22q0 14 10 27l160 217l-254 80q-31 12 -31 31z" />
    <glyph glyph-name="plus" unicode="+" 
d="M154 760v82q0 32 41 32h350v353q0 41 33 41h81q33 0 33 -41v-353h352q41 0 41 -32v-82q0 -33 -41 -33h-352v-350q0 -41 -33 -41h-81q-33 0 -33 41v350h-350q-41 0 -41 33z" />
    <glyph glyph-name="comma" unicode="," horiz-adv-x="436" 
d="M41 -176q0 12 2 14l117 387q7 24 14 31q8 8 27 8h118q27 0 27 -22q0 -1 -4 -17l-154 -387q-4 -10 -10 -22q-5 -11 -10 -13q-8 -4 -18 -4h-84q-25 0 -25 25z" />
    <glyph glyph-name="hyphen" unicode="-" horiz-adv-x="679" 
d="M98 559v80q0 16 11 27q10 10 28 10h408q15 0 28 -10q11 -8 11 -27v-80q0 -16 -11 -24q-15 -11 -28 -11h-408q-39 0 -39 35z" />
    <glyph glyph-name="period" unicode="." horiz-adv-x="436" 
d="M131 43v190q0 17 10 27q12 12 29 12h98q15 0 27 -12t12 -27v-190q0 -19 -10 -29q-12 -12 -29 -12h-98q-15 0 -27 12t-12 29z" />
    <glyph glyph-name="slash" unicode="/" horiz-adv-x="724" 
d="M47 29q0 10 2 12l465 1440q12 41 35 41h104q12 0 21 -9q8 -8 8 -20q0 -10 -2 -12l-463 -1440q-12 -41 -37 -41h-104q-13 0 -21 8t-8 21z" />
    <glyph glyph-name="zero" unicode="0" 
d="M117 623v276q0 331 131 483q133 154 373 154q501 0 501 -637v-276q0 -637 -501 -637q-239 0 -373 155q-131 152 -131 482zM305 623q0 -480 316 -480q315 0 315 480v276q0 479 -315 479q-316 0 -316 -479v-276z" />
    <glyph glyph-name="one" unicode="1" 
d="M143 37v90q0 19 11 27t30 8h326v1167l-322 -135q-45 -17 -45 16v105q0 10 4 14q7 7 17 12l366 168q26 13 43 13h84q16 0 27 -11q12 -12 12 -28v-1321h328q18 0 29 -8q12 -9 12 -27v-90q0 -18 -12 -27q-13 -10 -29 -10h-840q-17 0 -30 10q-11 8 -11 27z" />
    <glyph glyph-name="two" unicode="2" 
d="M164 39v166q0 164 74 297q70 127 239 241l207 140q130 89 170 141q41 53 41 145q0 109 -72 160q-73 51 -235 51q-149 0 -363 -30h-8q-33 0 -33 36v72q0 28 39 37q158 41 365 41q248 0 370 -90q119 -88 119 -277q0 -120 -61 -208t-205 -187l-197 -133q-168 -115 -227 -207
t-59 -229v-43h690q18 0 29 -8q12 -9 12 -27v-90q0 -18 -12 -27q-13 -10 -29 -10h-813q-19 0 -29 10q-12 12 -12 29z" />
    <glyph glyph-name="three" unicode="3" 
d="M172 66v69q0 17 10 27q8 8 25 8h6q242 -29 344 -29q167 0 244 68q76 67 76 215v43q0 39 -13 86q-9 33 -37 80q-23 39 -75 61q-54 23 -115 23h-373q-15 0 -28 10q-11 8 -11 27v71q0 18 11 29q10 10 28 10h373q67 0 121 23q48 21 73 59q27 42 35 78q11 50 11 84v29
q0 127 -74 186q-72 57 -246 57q-9 0 -29 -1t-30 -1q-11 0 -28.5 -1t-23.5 -1q-8 0 -28 -2.5t-29 -3.5t-27.5 -2t-25.5 -2q-6 -1 -26.5 -3.5t-33.5 -4.5q-16 -2 -36.5 -4.5t-26.5 -3.5h-6q-35 0 -35 34v72q0 13 12 25q11 11 27 14q202 41 346 41q125 0 209 -20
q94 -22 160 -66q67 -44 104 -123q37 -78 37 -190v-29q0 -100 -51 -188q-50 -86 -144 -132q69 -35 115 -90q44 -53 62 -110q18 -59 18 -121v-43q0 -223 -137 -330q-138 -108 -373 -108q-168 0 -346 41q-16 3 -27 14q-12 12 -12 25z" />
    <glyph glyph-name="four" unicode="4" 
d="M80 485v78q0 41 24 76l607 850q20 33 59 33h121q53 0 53 -45v-916h178q14 0 27 -10q12 -9 12 -27v-82q0 -16 -10 -26t-29 -10h-178v-365q0 -16 -10 -29q-9 -12 -25 -12h-118q-16 0 -25 12q-10 13 -10 29v365h-592q-48 0 -66 18t-18 61zM252 573q0 -12 16 -12h490v701
q0 12 -8 12h-2q-8 0 -17 -12l-473 -672q-6 -9 -6 -17z" />
    <glyph glyph-name="five" unicode="5" 
d="M160 63v76q0 31 30 31h11q176 -29 358 -29q334 0 334 322v31q0 152 -98 213t-330 61h-246q-12 0 -22 10q-11 11 -11 25v2l58 682q0 13 14 24q15 11 27 11h704q17 0 29 -9t12 -26v-90q0 -33 -41 -33h-588l-32 -442h96q112 0 211 -13q91 -12 170 -43q81 -32 129 -80
q52 -52 78 -122q28 -76 28 -170v-31q0 -224 -137 -352q-134 -125 -385 -125q-212 0 -360 37q-21 6 -29 14q-10 10 -10 26z" />
    <glyph glyph-name="six" unicode="6" 
d="M123 567v359q0 320 133 465t401 145q187 0 353 -35q47 -12 47 -39v-80q0 -36 -37 -36q-1 0 -3 1t-3 1h-6q-178 32 -351 32q-89 0 -157 -22q-64 -21 -103 -60q-36 -36 -57 -98t-27 -123q-6 -62 -6 -151v-23q193 41 309 41q83 0 154 -12q70 -12 137 -43q58 -27 111 -80
q46 -46 74 -123q26 -71 26 -170v-12q0 -247 -127 -383q-126 -135 -373 -135q-238 0 -366 143q-129 144 -129 438zM307 567q0 -121 21 -207q22 -88 61 -133q43 -49 96 -69q55 -21 133 -21q153 0 234 84q82 85 82 283v12q0 71 -27 137q-24 57 -71 88q-53 34 -101 45
q-57 13 -119 13q-161 0 -309 -37v-195z" />
    <glyph glyph-name="seven" unicode="7" 
d="M150 1397v86q0 14 12 26q13 13 28 13h748q82 0 117 -35q37 -37 37 -94q0 -49 -27 -107l-590 -1255q-15 -31 -45 -31h-123q-14 0 -22 8q-9 9 -9 23q0 5 7 22l618 1286q2 2 2 9q0 14 -14 14h-699q-40 0 -40 35z" />
    <glyph glyph-name="eight" unicode="8" 
d="M113 424v39q0 96 53 188q53 93 145 144q-95 50 -145 133q-49 82 -49 186v19q0 104 37 182t104 127q62 46 156 71q85 23 196 23h21q111 0 196 -23q94 -25 156 -71q67 -49 104 -127t37 -182v-19q0 -104 -49 -186q-50 -83 -145 -133q92 -51 145 -144q53 -92 53 -188v-39
q0 -115 -38 -195q-39 -83 -109 -137q-67 -52 -158 -80q-85 -26 -192 -26h-21q-107 0 -192 26q-91 28 -158 80q-68 53 -108 137q-39 82 -39 195zM297 1114q0 -107 63 -176q64 -70 197 -70h127q133 0 197 70q63 69 63 176v19q0 123 -80 188q-78 63 -233 63h-21
q-155 0 -233 -63q-80 -65 -80 -188v-19zM299 424q0 -135 80 -209t231 -74h21q151 0 231 74t80 209v39q0 49 -14 90q-13 36 -43 82q-24 37 -82 63q-50 23 -119 23h-127q-69 0 -119 -23q-58 -26 -82 -63q-30 -46 -43 -82q-14 -41 -14 -90v-39z" />
    <glyph glyph-name="nine" unicode="9" 
d="M102 1006v12q0 247 127 383q126 135 373 135q237 0 367 -145q131 -146 131 -437v-358q0 -320 -133 -465t-402 -145q-195 0 -352 34q-29 7 -37 13q-12 9 -12 26v80q0 17 10 27t27 10q1 0 3 -1t3 -1h6q165 -33 350 -33q71 0 119 11q45 10 90 32q34 16 62 52q31 40 43 67
q14 33 24 86q6 32 10 96q4 62 4 111v22q-188 -40 -309 -40q-84 0 -155 12q-65 11 -138 45q-60 28 -110 78q-46 46 -74 123q-27 74 -27 170zM287 1006q0 -75 26 -138q23 -57 72 -88q48 -31 100 -43q61 -14 119 -14q157 0 311 37v194q0 126 -20 207q-22 88 -61 133
q-44 50 -97 70t-133 20q-154 0 -235 -84q-82 -85 -82 -282v-12z" />
    <glyph glyph-name="colon" unicode=":" horiz-adv-x="446" 
d="M135 39v192q0 15 12 27t29 12h96q17 0 29 -12t12 -27v-192q0 -17 -12 -29q-10 -10 -29 -10h-96q-19 0 -29 10q-12 12 -12 29zM135 895v190q0 17 12 29t29 12h96q17 0 29 -12t12 -29v-190q0 -17 -12 -29q-10 -10 -29 -10h-96q-19 0 -29 10q-12 12 -12 29z" />
    <glyph glyph-name="semicolon" unicode=";" horiz-adv-x="446" 
d="M18 -178q0 12 2 14l117 387q6 22 15 31q8 8 26 8h117q27 0 27 -22q0 -4 -5 -17l-153 -387q-8 -20 -10 -24t-11 -13q-4 -4 -18 -4h-82q-25 0 -25 27zM135 895v190q0 19 10 29q12 12 29 12h100q15 0 27 -12t12 -29v-190q0 -17 -12 -29q-10 -10 -27 -10h-100q-17 0 -27 10
q-12 12 -12 29z" />
    <glyph glyph-name="less" unicode="&#x3c;" 
d="M250 801q0 39 37 69l493 418q34 27 64 27h119q24 0 24 -21q0 -17 -20 -34l-537 -459l537 -459q20 -17 20 -35q0 -20 -24 -20h-119q-32 0 -64 26l-493 418q-37 30 -37 70z" />
    <glyph glyph-name="equal" unicode="=" 
d="M184 535v81q0 33 41 33h789q41 0 41 -33v-81q0 -33 -41 -33h-789q-41 0 -41 33zM184 987v82q0 33 41 33h789q41 0 41 -33v-82q0 -33 -41 -33h-789q-41 0 -41 33z" />
    <glyph glyph-name="greater" unicode="&#x3e;" 
d="M252 307q0 18 20 35l537 459l-537 459q-20 17 -20 34q0 21 24 21h119q29 0 64 -27l493 -418q37 -30 37 -69q0 -40 -37 -70l-493 -418q-32 -26 -64 -26h-119q-24 0 -24 20z" />
    <glyph glyph-name="question" unicode="?" horiz-adv-x="911" 
d="M68 1391v71q0 24 6 33q7 11 28 14q141 27 279 27q410 0 410 -309v-25q0 -78 -37 -151q-35 -68 -150 -199l-92 -104q-16 -19 -36.5 -44t-26.5 -32q-23 -27 -33 -56q-13 -37 -13 -79v-101q0 -16 -12 -28q-11 -11 -29 -11h-90q-17 0 -28 11t-11 28v101q0 97 27 159
q25 56 109 150l94 104q79 88 100 135q27 59 27 117v25q0 80 -49 114q-47 33 -160 33q-111 0 -277 -18h-6q-30 0 -30 35zM227 39v190q0 16 13 29q12 12 28 12h99q14 0 26 -12q13 -13 13 -29v-190q0 -18 -11 -29q-10 -10 -28 -10h-99q-18 0 -28 10q-13 13 -13 29z" />
    <glyph glyph-name="at" unicode="@" horiz-adv-x="1568" 
d="M84 330q0 49 2 63l31 320q27 284 223 456q198 174 518 174q155 0 277 -49q119 -48 198 -133q75 -81 117 -190q41 -106 41 -221q0 -361 -193 -508q-171 -131 -553 -131q-151 0 -241 75q-88 73 -88 209q0 29 2 37l22 240q15 157 111 241t262 84q115 0 262 -30q25 -7 33 -15
q10 -10 10 -28v-9l-61 -641q73 12 129 39q45 22 86 70q33 39 51 100q23 78 27 121q6 62 6 146q0 90 -33 184q-29 83 -92 149q-67 71 -158 105q-98 37 -221 37q-263 0 -420 -142q-158 -143 -182 -378l-31 -312q-4 -62 -4 -65q0 -194 131 -316q130 -121 385 -121q110 0 295 15
h2q4 0 12 -4q7 -4 7 -8v-3v-65q0 -26 -33 -29q-150 -16 -285 -16q-292 0 -469 151q-176 150 -176 398zM586 399q0 -71 41 -106t127 -35h43q52 0 88 4l51 576q-86 12 -139 12q-90 0 -133 -43q-45 -45 -54 -139l-22 -234q-2 -8 -2 -35z" />
    <glyph glyph-name="A" unicode="A" horiz-adv-x="1294" 
d="M59 33q0 12 2 14l379 1333q23 83 82 121q55 35 127 35q66 0 125 -35q58 -34 82 -119l379 -1335q2 -2 2 -14q0 -15 -8 -23q-10 -10 -27 -10h-121q-25 0 -34 31l-134 471h-530l-131 -471q-3 -13 -14 -21q-13 -10 -23 -10h-121q-14 0 -24 10q-11 11 -11 23zM422 664h452
l-186 673q-9 37 -39 37q-32 0 -41 -37z" />
    <glyph glyph-name="B" unicode="B" horiz-adv-x="1259" 
d="M160 80v1364q0 70 65 76q144 16 326 16q600 0 600 -395v-33q0 -119 -57 -199q-59 -83 -162 -123q105 -37 166 -124q61 -88 61 -207v-35q0 -434 -598 -434q-217 0 -334 18q-36 6 -51 21q-16 16 -16 55zM348 152q7 0 20.5 -1t35.5 -2t42 -2q98 -4 115 -4q96 0 172 13
q69 12 127 43q57 31 84 86q29 60 29 135v35q0 55 -15 98q-16 46 -49 82q-35 38 -96 59t-149 21h-316v-563zM348 864h316q301 0 301 244v33q0 54 -19 100q-16 39 -53 68q-38 29 -88 43q-49 13 -115 20q-59 6 -139 6q-31 0 -203 -6v-508z" />
    <glyph glyph-name="C" unicode="C" horiz-adv-x="1114" 
d="M123 618v285q0 149 33 258q37 121 84 182q52 67 125 113t145 64q65 16 154 16q142 0 344 -33q32 -3 32 -26v-105q0 -22 -24 -22h-6q-221 18 -344 18q-78 0 -142 -25q-62 -24 -112 -77q-49 -52 -76 -144t-27 -219v-285q0 -126 27 -217q28 -94 76 -145q53 -56 112 -78
q64 -24 142 -24q128 0 338 16h8q32 0 32 -33v-84q0 -35 -40 -41q-153 -26 -340 -26q-80 0 -154 18q-77 19 -145 62q-72 45 -125 114q-47 61 -84 182q-33 109 -33 256z" />
    <glyph glyph-name="D" unicode="D" horiz-adv-x="1310" 
d="M160 57v1407q0 46 43 52q111 20 372 20q291 0 457 -158q164 -156 164 -479v-276q0 -319 -164 -478t-457 -159q-261 0 -372 20q-43 6 -43 51zM348 150q69 -5 227 -5q100 0 173 23q72 23 137 78q56 48 92 147q33 90 33 230v276q0 103 -23 193q-21 81 -59 135q-38 53 -94 88
q-57 35 -119 47q-75 14 -140 14q-125 0 -227 -6v-1220z" />
    <glyph glyph-name="E" unicode="E" horiz-adv-x="1126" 
d="M160 367v788q0 203 108 291q110 90 328 90q270 0 399 -12q8 0 15 -11q6 -9 6 -18v-102q0 -13 -6 -19t-17 -6h-395q-104 0 -162 -22q-56 -21 -74 -64q-16 -39 -16 -127v-285h629q17 0 29 -12t12 -29v-77q0 -17 -12 -29t-29 -12h-629v-344q0 -88 16 -127q18 -43 74 -64
q58 -22 162 -22h395q10 0 17 -7q6 -6 6 -18v-104q0 -10 -6 -19q-7 -10 -15 -10q-110 -10 -399 -10q-218 0 -328 90q-108 88 -108 291z" />
    <glyph glyph-name="F" unicode="F" horiz-adv-x="1126" 
d="M160 41v1114q0 203 108 291q110 90 328 90q270 0 399 -12q8 0 15 -11q6 -9 6 -18v-102q0 -13 -6 -19t-17 -6h-395q-104 0 -162 -22q-56 -21 -74 -64q-16 -39 -16 -127v-285h629q17 0 29 -12t12 -29v-77q0 -17 -12 -29t-29 -12h-629v-670q0 -17 -12 -29t-29 -12h-104
q-17 0 -29 12t-12 29z" />
    <glyph glyph-name="G" unicode="G" horiz-adv-x="1251" 
d="M119 623v274q0 147 33 256q36 120 84 184q52 71 126 117q72 45 148 64q74 18 158 18q184 0 389 -29q35 -3 35 -30v-103q0 -20 -27 -20h-8q-158 14 -389 14q-58 0 -111 -12q-50 -11 -98 -47q-46 -34 -80 -86q-30 -46 -53 -136q-21 -82 -21 -190v-274q0 -123 27 -215
q29 -97 74 -148q51 -57 108 -82q59 -26 135 -26q111 0 258 12v586q0 15 11 30q8 11 26 11h111q13 0 26 -13t13 -28v-689q0 -15 -11 -30q-9 -12 -26 -15q-187 -30 -408 -30q-83 0 -153 20q-75 21 -144 70q-68 48 -121 119q-50 67 -81 182t-31 246z" />
    <glyph glyph-name="H" unicode="H" horiz-adv-x="1390" 
d="M160 41v1440q0 16 12 28q13 13 29 13h104q16 0 29 -13q12 -12 12 -28v-594h701v594q0 16 12 28q13 13 28 13h105q16 0 29 -13q12 -12 12 -28v-1440q0 -17 -12 -29t-29 -12h-105q-16 0 -28 12t-12 29v680h-701v-680q0 -17 -12 -29t-29 -12h-104q-17 0 -29 12t-12 29z" />
    <glyph glyph-name="I" unicode="I" horiz-adv-x="544" 
d="M180 41v1442q0 15 10 28q8 11 27 11h113q15 0 26 -11t11 -28v-1442q0 -14 -11 -29q-9 -12 -26 -12h-113q-15 0 -27 12q-10 10 -10 29z" />
    <glyph glyph-name="J" unicode="J" horiz-adv-x="524" 
d="M-72 -254q0 19 11 27t30 8h80q75 0 105 33q26 29 26 110v1559q0 13 13 26t26 13h109q13 0 26 -13t13 -26v-1559q0 -151 -76 -221q-78 -72 -242 -72q-23 0 -63 7q-38 7 -45 10q-13 6 -13 22v76z" />
    <glyph glyph-name="K" unicode="K" horiz-adv-x="1241" 
d="M160 41v1442q0 18 10 28q11 11 29 11h108q16 0 27 -11q12 -12 12 -28v-662l590 682q19 19 41 19h147q29 0 29 -23q0 -12 -8 -20l-617 -697l617 -737q10 -10 10 -25q0 -20 -27 -20h-159q-28 0 -45 20l-578 703v-682q0 -16 -10 -29q-9 -12 -27 -12h-112q-15 0 -27 12
q-10 10 -10 29z" />
    <glyph glyph-name="L" unicode="L" horiz-adv-x="1050" 
d="M160 367v1114q0 16 12 28q13 13 29 13h104q16 0 29 -13q12 -12 12 -28v-1114q0 -88 16 -127q18 -43 74 -64q58 -22 162 -22h395q10 0 17 -7q6 -6 6 -18v-96q0 -10 -6 -19q-7 -10 -15 -10q-120 -18 -399 -18q-36 0 -94 4q-40 3 -88 12q-28 5 -82 27q-20 8 -70 47
q-34 27 -55 67q-24 46 -35 97q-12 56 -12 127z" />
    <glyph glyph-name="M" unicode="M" horiz-adv-x="1556" 
d="M160 41v1421q0 27 16 43q17 17 43 17h133q28 0 43 -6q13 -5 23 -29l338 -703q9 -22 24 -22q16 0 25 22l338 703q10 24 22 29q15 6 43 6h133q26 0 43 -17t17 -43v-1421q0 -17 -12 -29t-29 -12h-100q-17 0 -29 12t-12 29v1214q0 7 -2 7q-3 0 -5 -5l-292 -606
q-18 -35 -35 -45q-25 -14 -58 -14h-94q-36 0 -57 14q-19 12 -35 45l-293 606q-2 5 -4 5t-2 -7v-1214q0 -17 -12 -29t-29 -12h-100q-17 0 -29 12t-12 29z" />
    <glyph glyph-name="N" unicode="N" horiz-adv-x="1390" 
d="M160 25v1439q0 28 16 41q20 17 43 17h113q40 0 55 -9q19 -11 29 -32l628 -1196l5 -6q2 0 2 6v1198q0 13 10 26t26 13h109q19 0 27 -11q10 -13 10 -28v-1424q0 -27 -16 -43t-43 -16h-127q-49 0 -66 33l-633 1202q-3 6 -6 6q-2 0 -2 -6v-1196q0 -17 -10 -27
q-12 -12 -27 -12h-106q-37 0 -37 25z" />
    <glyph glyph-name="O" unicode="O" horiz-adv-x="1351" 
d="M123 629v264q0 165 41 293q38 118 117 200q71 74 174 113q98 37 223 37t223 -37q103 -39 174 -113q76 -79 115 -200q41 -128 41 -293v-264q0 -163 -41 -291q-40 -125 -115 -203q-70 -72 -174 -112q-98 -37 -223 -37t-223 37q-104 40 -174 112q-78 81 -117 203
q-41 128 -41 291zM311 629q0 -475 367 -475q364 0 364 475v264q0 249 -94 362t-270 113q-367 0 -367 -475v-264z" />
    <glyph glyph-name="P" unicode="P" horiz-adv-x="1212" 
d="M160 41v1427q0 46 49 52q150 16 340 16q573 0 573 -444v-27q0 -459 -573 -459q-58 0 -205 10v-575q0 -16 -10 -29q-9 -12 -27 -12h-110q-15 0 -27 12q-10 10 -10 29zM344 770q167 -8 205 -8q209 0 299 72q88 70 88 231v27q0 151 -92 219q-91 67 -295 67q-117 0 -205 -8
v-600z" />
    <glyph glyph-name="Q" unicode="Q" horiz-adv-x="1351" 
d="M123 629v264q0 165 41 293q38 118 117 200q71 74 174 113q98 37 223 37t223 -37q103 -39 174 -113q76 -79 115 -200q41 -128 41 -293v-264q0 -300 -125 -455q-130 -160 -340 -184v-88q0 -75 25 -97t102 -22h121q45 0 45 -33v-69q0 -50 -166 -50q-161 0 -234 58t-73 211
v92q-214 27 -338 184q-125 159 -125 453zM311 629q0 -475 367 -475q364 0 364 475v264q0 249 -94 362t-270 113q-367 0 -367 -475v-264z" />
    <glyph glyph-name="R" unicode="R" horiz-adv-x="1280" 
d="M160 41v1434q0 22 10 32t39 13q150 16 360 16q574 0 574 -440v-15q0 -162 -88 -270q-82 -101 -234 -143l373 -623q6 -9 6 -18q0 -10 -6 -19q-5 -8 -20 -8h-132q-20 0 -32 4q-7 2 -21 23l-366 610h-19h-35q-61 0 -225 6v-602q0 -16 -10 -29q-9 -12 -27 -12h-110
q-15 0 -27 12q-10 10 -10 29zM344 801q49 -1 102 -2t81.5 -1.5t41.5 -0.5q196 0 293 63q96 62 96 221v15q0 149 -96 211q-94 61 -293 61q-175 0 -225 -6v-561z" />
    <glyph glyph-name="S" unicode="S" horiz-adv-x="1124" 
d="M102 1174q0 184 125 272q128 90 365 90q186 0 356 -25q35 -6 35 -34v-88q0 -13 -10 -23t-25 -10h-4q-182 12 -352 12q-165 0 -232 -43q-69 -44 -69 -151q0 -69 49 -121q50 -53 174 -127l188 -113q176 -103 250 -199q72 -93 72 -219q0 -54 -14 -119q-12 -55 -49 -110
q-34 -50 -91 -92q-54 -39 -145 -64q-89 -24 -207 -24q-152 0 -340 28q-25 3 -33 11q-6 6 -6 26v82q0 14 11 25q8 8 24 8h6q141 -12 338 -12q175 0 242 61q69 63 69 180q0 77 -51 131q-56 59 -194 144l-199 121q-142 85 -215 178q-68 86 -68 205z" />
    <glyph glyph-name="T" unicode="T" horiz-adv-x="1206" 
d="M72 1395v90q0 14 12 26q11 11 29 11h985q13 0 28 -11q11 -8 11 -26v-90q0 -17 -11 -25t-28 -8h-400v-1321q0 -16 -10 -29q-9 -12 -26 -12h-113q-15 0 -27 12q-10 10 -10 29v1321h-399q-41 0 -41 33z" />
    <glyph glyph-name="U" unicode="U" horiz-adv-x="1353" 
d="M154 553v930q0 16 12 28q11 11 27 11h110q16 0 27 -11q12 -12 12 -28v-930q0 -206 76 -307t260 -101t260 101t76 307v930q0 18 10 28q11 11 29 11h110q16 0 27 -11q12 -12 12 -28v-930q0 -285 -135 -426t-389 -141t-389 141t-135 426z" />
    <glyph glyph-name="V" unicode="V" horiz-adv-x="1314" 
d="M70 1487q0 14 10 24q11 11 26 11h119q11 0 23 -9q10 -8 14 -22l356 -1305q7 -24 15 -32q11 -11 26 -11q27 0 39 43l359 1305q3 13 12 22t23 9h120q14 0 25 -11q10 -10 10 -24q0 -10 -2 -12l-377 -1334q-44 -155 -209 -155q-164 0 -208 155l-379 1334q-2 2 -2 12z" />
    <glyph glyph-name="W" unicode="W" horiz-adv-x="1687" 
d="M72 1481v6q0 14 10 24q11 11 24 11h119q14 0 23 -9t12 -26l199 -1305q0 -2 1 -5t1 -5t1 -4.5t1 -3.5v-6l2 -4q2 -2 4 -2q8 0 14 30l201 758q21 82 96 82h131q76 0 97 -82l200 -758q6 -30 15 -30l4 2q2 2 2 4q0 1 1 3t1 3v8q0 2 1 5t1 5l199 1305q6 35 34 35h119
q14 0 25 -11q10 -10 10 -24v-6l-227 -1385q-9 -60 -41 -82q-31 -22 -86 -22h-88q-43 0 -74 28t-43 74l-201 758q-3 13 -6 16q-2 2 -6 2h-2h-2h-6q0 -4 -2 -6t-5 -12l-202 -758q-12 -46 -43 -74t-74 -28h-86q-55 0 -86 22q-32 22 -41 82z" />
    <glyph glyph-name="X" unicode="X" horiz-adv-x="1320" 
d="M94 31q0 11 6 20l455 723l-451 699q-6 9 -6 20q0 12 8 20q9 9 23 9h133q25 0 37 -21l369 -583l356 583q15 21 39 21h121q15 0 24 -9t9 -22q0 -4 -7 -18l-440 -703l461 -719q6 -9 6 -22t-8 -21t-25 -8h-129q-15 0 -24 6q-4 3 -19 25l-375 596l-366 -596q-19 -31 -43 -31
h-121q-17 0 -25 8t-8 23z" />
    <glyph glyph-name="Y" unicode="Y" horiz-adv-x="1191" 
d="M72 1493q0 10 10 20q9 9 24 9h125q9 0 21 -9q10 -7 16 -20l283 -664q21 -53 47 -53q13 0 23 10q5 5 24 43l285 664q13 29 35 29h125q15 0 24 -9q10 -10 10 -20q0 -11 -6 -23l-317 -712q-49 -108 -111 -135v-582q0 -19 -10 -29q-12 -12 -27 -12h-112q-15 0 -27 12
q-10 10 -10 29v582q-56 19 -111 135l-315 712q-6 12 -6 23z" />
    <glyph glyph-name="Z" unicode="Z" horiz-adv-x="1220" 
d="M115 139q0 73 30 119l734 1067q6 9 6 16q0 15 -21 15h-680q-15 0 -28 10t-13 25v96q0 14 13 24q15 11 28 11h729q91 0 134 -29q40 -27 40 -107q0 -67 -32 -120l-731 -1067q-7 -14 -7 -19q0 -12 21 -12h735q18 0 29 -8q12 -9 12 -27v-96q0 -15 -12 -27q-10 -10 -29 -10
h-788q-95 0 -135 29q-35 25 -35 110z" />
    <glyph glyph-name="bracketleft" unicode="[" horiz-adv-x="667" 
d="M164 -358v1841q0 13 10 26t25 13h381q15 0 28 -13t13 -28v-68q0 -16 -13 -29q-12 -12 -28 -12h-234v-1620h234q16 0 28 -12q13 -13 13 -29v-67q0 -16 -13 -29q-12 -12 -28 -12h-381q-16 0 -25 12q-10 13 -10 27z" />
    <glyph glyph-name="backslash" unicode="\" horiz-adv-x="724" 
d="M47 1493q0 12 8 20q9 9 21 9h104q23 0 35 -41l465 -1440q2 -2 2 -12q0 -13 -8 -21t-21 -8h-104q-25 0 -37 41l-463 1440q-2 2 -2 12z" />
    <glyph glyph-name="bracketright" unicode="]" horiz-adv-x="667" 
d="M49 -289q0 17 12 29t29 12h234v1620h-234q-17 0 -29 12t-12 29v68q0 16 12 28q13 13 29 13h381q15 0 25 -13t10 -26v-1841q0 -14 -10 -27q-9 -12 -25 -12h-381q-17 0 -29 12t-12 29v67z" />
    <glyph glyph-name="asciicircum" unicode="^" 
d="M207 1171q0 12 8 23l236 305q4 4 10.5 12.5t10 12.5t7.5 6q12 6 33 6h217q21 0 33 -6q4 -2 29 -31l235 -305q8 -11 8 -23q0 -18 -22 -18h-123q-19 0 -25 4t-14 12q-11 11 -19 21l-210 246l-211 -246q-8 -10 -19 -21q-8 -8 -14 -12t-25 -4h-123q-22 0 -22 18z" />
    <glyph glyph-name="underscore" unicode="_" horiz-adv-x="1009" 
d="M-61 -133q0 33 41 33h1054q41 0 41 -33v-51q0 -33 -41 -33h-1054q-41 0 -41 33v51z" />
    <glyph glyph-name="grave" unicode="`" horiz-adv-x="759" 
d="M82 1581q0 14 22 14h136q19 0 28 -6q7 -5 23 -24l198 -254q9 -9 9 -21q0 -14 -19 -14h-110q-2 0 -6 1t-5 1t-4 1t-4 1q-2 0 -6 4l-6 6l-8 8l-8 9l-232 258q-8 8 -8 16z" />
    <glyph glyph-name="a" unicode="a" horiz-adv-x="1060" 
d="M98 317v25q0 173 113 252q115 80 381 80h151v82q0 128 -49 180q-48 51 -170 51q-139 0 -313 -16h-10q-37 0 -37 33v71q0 33 43 39q164 27 317 27q208 0 303 -99q97 -102 97 -286v-715q0 -16 -13 -29q-12 -12 -28 -12h-95q-16 0 -28 12t-12 29v45q-169 -100 -316 -100
q-65 0 -127 16q-51 13 -104 53q-50 38 -76 103q-27 68 -27 159zM279 319q0 -104 47 -145t141 -41q127 0 276 82v330h-151q-181 0 -248 -45q-65 -44 -65 -156v-25z" />
    <glyph glyph-name="b" unicode="b" horiz-adv-x="1105" 
d="M139 68v1433q0 12 11 27q9 12 26 12h105q16 0 26 -10q12 -12 12 -29v-381q117 21 240 21q220 0 334 -129q113 -128 113 -373v-147q0 -236 -111 -371t-336 -135q-207 0 -377 34q-23 3 -35 15q-8 8 -8 33zM319 156q163 -13 240 -13q145 0 207 86q59 82 59 263v147
q0 173 -61 258q-62 86 -205 86q-166 0 -240 -14v-813z" />
    <glyph glyph-name="c" unicode="c" horiz-adv-x="923" 
d="M102 483v160q0 227 115 363q114 135 322 135q115 0 256 -23q21 -3 32 -14q9 -9 9 -31v-74q0 -11 -11 -22q-8 -8 -24 -8h-8q-118 14 -254 14q-256 0 -256 -340v-160q0 -340 256 -340q119 0 254 15h8q16 0 24 -8q11 -11 11 -23v-74q0 -21 -9 -30q-13 -13 -32 -15
q-132 -22 -256 -22q-208 0 -322 135q-115 136 -115 362z" />
    <glyph glyph-name="d" unicode="d" horiz-adv-x="1105" 
d="M102 492v147q0 245 113 373q114 129 334 129q119 0 239 -21v381q0 16 11 27q12 12 28 12h105q16 0 26 -10q11 -11 11 -29v-1433q0 -22 -8 -33q-9 -12 -35 -15q-170 -34 -377 -34q-225 0 -336 135t-111 371zM283 492q0 -181 59 -263q62 -86 207 -86q77 0 239 13v813
q-74 14 -239 14q-143 0 -205 -86q-61 -85 -61 -258v-147z" />
    <glyph glyph-name="e" unicode="e" horiz-adv-x="1112" 
d="M102 477v185q0 224 119 352q118 127 336 127q221 0 336 -127t115 -352v-111q0 -18 -11 -33q-9 -12 -28 -12h-686v-29q0 -181 69 -256q72 -78 215 -78q197 0 365 23h10q11 0 23 -8q10 -7 10 -21v-69q0 -22 -8 -33q-9 -12 -33 -15q-170 -34 -367 -34q-79 0 -139 14
q-75 18 -127 49q-64 39 -104 90q-47 60 -70 142q-25 89 -25 196zM283 643h542v19q0 168 -65 245q-64 76 -203 76q-274 0 -274 -321v-19z" />
    <glyph glyph-name="f" unicode="f" horiz-adv-x="778" 
d="M51 1034v56q0 18 10 26q13 10 29 10h199v148q0 156 71 221q70 64 215 64q52 0 115 -13q39 -9 39 -33v-67q0 -31 -37 -31h-98q-72 0 -98 -29q-27 -30 -27 -112v-148h215q16 0 29 -10q10 -8 10 -26v-80q0 -18 -10 -25q-13 -10 -29 -10h-215v-934q0 -17 -12 -29t-27 -12
h-100q-17 0 -29 12t-12 29v934l-199 22q-15 3 -29 13q-10 7 -10 24z" />
    <glyph glyph-name="g" unicode="g" horiz-adv-x="1142" 
d="M111 -66q0 82 36 150q37 70 93 111l-15 6q-47 21 -71 65q-23 42 -23 94v2q0 44 21 84q20 38 63 64q-94 88 -94 238v16q0 58 12 108t47 97q38 51 82 82q47 33 131 55q76 20 182 20h449q16 0 33 -14q14 -11 14 -31v-53q0 -33 -37 -39l-73 -14q69 -75 69 -211v-16
q0 -351 -455 -351q-137 0 -237 41q-51 -20 -51 -69q0 -27 14 -41q17 -17 49 -25l305 -78q13 -3 86 -22q13 -3 40.5 -13t39.5 -14q34 -11 74 -31q18 -9 61 -39q31 -22 50 -47q16 -22 30 -61q13 -37 13 -74v-16q0 -318 -467 -318q-237 0 -355 86q-116 85 -116 240v18zM287 -66
v-18q0 -93 67 -139q68 -47 228 -47q84 0 143 12q60 12 88 35q31 25 43 55t12 76v16q0 55 -53 90q-47 31 -197 70l-231 59q-54 -48 -76 -90q-24 -46 -24 -119zM299 748q0 -209 276 -209q77 0 136 16q55 15 86 43t43 66t12 84v16q0 104 -61 162q-60 57 -216 57q-83 0 -139 -18
q-58 -19 -86 -50q-27 -30 -39 -67q-12 -38 -12 -84v-16z" />
    <glyph glyph-name="h" unicode="h" horiz-adv-x="1138" 
d="M139 41v1458q0 18 11 29q12 12 28 12h103q19 0 28 -12q10 -13 10 -29v-422q78 33 156 47q97 17 158 17q171 0 270 -105q98 -104 98 -321v-674q0 -17 -12 -29t-28 -12h-99q-16 0 -28 12q-13 13 -13 29v674q0 146 -55 207t-164 61q-62 0 -139 -14q-79 -14 -144 -43v-885
q0 -17 -12 -29t-28 -12h-101q-14 0 -26 12q-13 13 -13 29z" />
    <glyph glyph-name="i" unicode="i" horiz-adv-x="503" 
d="M160 1348v163q0 17 12 29t29 12h104q17 0 29 -12t12 -29v-163q0 -17 -12 -29t-29 -12h-104q-17 0 -29 12t-12 29zM162 41v1044q0 17 12 29t29 12h98q17 0 29 -12t12 -29v-1044q0 -17 -12 -29t-29 -12h-98q-17 0 -29 12t-12 29z" />
    <glyph glyph-name="j" unicode="j" horiz-adv-x="503" 
d="M-61 -287q0 29 43 29h84q58 0 77 25t19 102v1216q0 16 10 29q9 12 27 12h106q18 0 27 -12q10 -13 10 -29v-1216q0 -156 -63 -213q-65 -59 -193 -59q-62 0 -111 8q-36 6 -36 33v75zM160 1346v165q0 17 12 29t29 12h104q17 0 29 -12t12 -29v-165q0 -15 -12 -27t-29 -12
h-104q-17 0 -29 12t-12 27z" />
    <glyph glyph-name="k" unicode="k" horiz-adv-x="1013" 
d="M139 41v1458q0 16 13 29q12 12 28 12h99q16 0 28 -12t12 -29v-852l410 461q15 18 41 18h143q31 0 31 -22q0 -13 -10 -23l-451 -487l455 -549q6 -6 6 -18q0 -10 -6 -19q-5 -8 -16 -8h-148q-15 0 -24 6q-13 9 -23 21l-408 503v-489q0 -17 -12 -29t-28 -12h-99q-16 0 -28 12
q-13 13 -13 29z" />
    <glyph glyph-name="l" unicode="l" horiz-adv-x="497" 
d="M160 41v1460q0 14 10 27q9 12 27 12h106q17 0 27 -10t10 -29v-1460q0 -16 -10 -29q-9 -12 -27 -12h-106q-15 0 -27 12q-10 10 -10 29z" />
    <glyph glyph-name="m" unicode="m" horiz-adv-x="1632" 
d="M139 41v1044q0 18 11 29q12 12 28 12h103q19 0 28 -12q10 -13 10 -29v-38q155 96 299 96q130 0 205 -84q182 84 340 84q67 0 129 -19q59 -18 105 -61q49 -46 73 -119q25 -77 25 -178v-725q0 -17 -12 -29t-29 -12h-98q-17 0 -29 12t-12 29v725q0 121 -49 170t-138 49
q-99 0 -239 -55q18 -68 18 -160v-729q0 -16 -10 -29q-9 -12 -27 -12h-108q-16 0 -25 12q-10 13 -10 29v729q0 127 -37 170q-39 45 -121 45q-90 0 -250 -80v-864q0 -16 -10 -29q-9 -12 -26 -12h-109q-15 0 -24 12q-11 15 -11 29z" />
    <glyph glyph-name="n" unicode="n" horiz-adv-x="1138" 
d="M139 41v1044q0 18 11 29q12 12 28 12h103q19 0 28 -12q10 -13 10 -29v-38q90 51 162 71q81 23 164 23q356 0 356 -426v-674q0 -17 -12 -29t-28 -12h-99q-16 0 -28 12q-13 13 -13 29v674q0 152 -53 211t-172 59q-117 0 -277 -80v-864q0 -17 -12 -29t-28 -12h-101
q-14 0 -26 12q-13 13 -13 29z" />
    <glyph glyph-name="o" unicode="o" horiz-adv-x="1114" 
d="M102 485v156q0 230 117 365t338 135q223 0 340 -135t117 -365v-156q0 -229 -117 -364t-340 -135q-221 0 -338 135t-117 364zM283 485q0 -164 67 -252q69 -90 207 -90q140 0 209 90q68 89 68 252v156q0 163 -68 252q-69 90 -209 90q-138 0 -207 -90q-67 -88 -67 -252v-156
z" />
    <glyph glyph-name="p" unicode="p" horiz-adv-x="1105" 
d="M139 -362v1409q0 22 8 30q12 12 35 17q193 47 377 47q227 0 336 -133q111 -135 111 -373v-148q0 -244 -113 -372q-114 -129 -334 -129q-108 0 -240 22v-370q0 -14 -10 -27q-9 -12 -28 -12h-105q-14 0 -26 12q-11 11 -11 27zM319 158q120 -21 240 -21q144 0 205 88t61 262
v148q0 171 -61 262q-62 92 -205 92q-131 0 -240 -20v-811z" />
    <glyph glyph-name="q" unicode="q" horiz-adv-x="1105" 
d="M102 487v148q0 238 111 373q109 133 336 133q184 0 377 -47q26 -6 35 -15q8 -8 8 -32v-1409q0 -12 -11 -27q-9 -12 -26 -12h-105q-16 0 -28 12q-11 11 -11 27v370q-129 -22 -239 -22q-220 0 -334 129q-113 128 -113 372zM283 487q0 -174 61 -262t205 -88q119 0 239 21
v811q-106 20 -239 20q-142 0 -205 -90q-61 -88 -61 -264v-148z" />
    <glyph glyph-name="r" unicode="r" horiz-adv-x="698" 
d="M139 41v1044q0 18 11 29q12 12 28 12h96q15 0 27 -12t12 -29v-43q141 99 289 99q43 0 43 -37v-84q0 -35 -43 -35q-138 0 -283 -86v-858q0 -17 -12 -29t-28 -12h-101q-14 0 -26 12q-13 13 -13 29z" />
    <glyph glyph-name="s" unicode="s" horiz-adv-x="952" 
d="M102 57v72q0 15 11 23t26 8h8q205 -23 322 -23q107 0 154 33q49 34 49 113q0 46 -33 82t-121 88l-207 122q-97 59 -155 132q-54 69 -54 161q0 76 27 131q27 56 80 86q55 31 117 43q70 13 147 13q157 0 320 -27q38 -6 38 -41v-67q0 -35 -34 -35h-6q-203 16 -318 16
q-97 0 -143 -24q-47 -24 -47 -95q0 -45 32 -77q37 -37 109 -78l203 -121q127 -76 174 -143q51 -73 51 -166q0 -151 -102 -224q-101 -73 -281 -73q-204 0 -324 30q-43 9 -43 41z" />
    <glyph glyph-name="t" unicode="t" horiz-adv-x="786" 
d="M51 1034v56q0 16 10 26t29 10h199v201q0 14 10 27q8 11 27 14l106 16h6q11 0 21 -10t10 -24v-224h221q17 0 29 -12t12 -29v-69q0 -17 -12 -29t-29 -12h-221v-715q0 -78 23 -104q22 -25 88 -25h114q43 0 43 -29v-71q0 -29 -37 -35q-75 -10 -133 -10q-73 0 -123 12t-86 41
q-39 31 -53 84q-16 59 -16 137v715l-199 22q-39 3 -39 37z" />
    <glyph glyph-name="u" unicode="u" horiz-adv-x="1138" 
d="M139 412v673q0 16 13 29q12 12 28 12h99q16 0 28 -12t12 -29v-673q0 -148 54 -211q51 -60 172 -60q116 0 276 80v864q0 16 13 29q12 12 28 12h101q14 0 26 -12t12 -29v-1044q0 -16 -10 -29q-9 -12 -28 -12h-103q-17 0 -29 12q-10 10 -10 29v39q-94 -53 -162 -72
q-77 -22 -163 -22q-357 0 -357 426z" />
    <glyph glyph-name="v" unicode="v" horiz-adv-x="1083" 
d="M80 1092q0 16 8 24q10 10 25 10h112q27 0 39 -39l236 -892q10 -37 18 -48q9 -12 25 -12q15 0 24 12q10 13 19 48l235 892q12 39 39 39h113q14 0 24 -10q9 -9 9 -24q0 -11 -2 -15l-277 -975q-18 -66 -65 -90q-50 -26 -119 -26t-119 26q-48 25 -66 90l-276 975q-2 4 -2 15z
" />
    <glyph glyph-name="w" unicode="w" horiz-adv-x="1607" 
d="M78 1077v8q0 19 10 29q12 12 29 12h110q13 0 23 -10q9 -9 12 -22l170 -934q3 -18 6 -21q4 -4 11 -4q10 0 16 25l201 786q18 62 82 62h114q64 0 82 -62l201 -786q6 -25 16 -25h6q3 0 7 8q1 2 1.5 4t1 6t1.5 7l170 934q3 13 12 22q10 10 22 10h111q17 0 29 -12
q10 -10 10 -29v-8l-199 -950q-22 -98 -49 -119q-28 -22 -123 -22q-79 0 -112 26q-32 25 -56 121l-178 696l-2 6l-1.5 4.5t-0.5 2.5q0 2 -6 2t-6 -2q0 -1 -0.5 -2.5l-1.5 -4.5l-2 -6l-179 -696q-22 -93 -55 -119q-36 -28 -112 -28q-93 0 -123 24q-29 23 -50 117z" />
    <glyph glyph-name="x" unicode="x" horiz-adv-x="1118" 
d="M82 20q0 14 10 27l369 526l-348 502q-11 17 -11 27t9 16q12 8 22 8h133q22 0 41 -28l260 -385l262 385q13 20 21 24t22 4h119q13 0 19 -6q8 -8 8 -18q0 -7 -10 -27l-344 -489l374 -539q9 -12 9 -24q0 -23 -27 -23h-141q-16 0 -29 16l-293 428l-293 -424q-11 -14 -14 -16
q-8 -4 -21 -4h-123q-24 0 -24 20z" />
    <glyph glyph-name="y" unicode="y" horiz-adv-x="1091" 
d="M80 1092q0 34 37 34h112q13 0 23 -10q9 -9 12 -22l242 -889q6 -27 16 -37q8 -8 23 -8h33l249 936q3 11 15 20q13 10 24 10h115q15 0 25 -10q8 -8 8 -24q0 -13 -2 -15l-338 -1179q-36 -121 -74 -179q-43 -65 -111 -94q-73 -31 -190 -31q-85 0 -172 19q-43 9 -43 33v75
q0 33 39 33h6q135 -12 182 -12q91 0 135 35t68 139l21 84h-29q-21 0 -45 4q-8 1 -39 19q-17 10 -37 43q-20 34 -31 75l-272 936q-2 2 -2 15z" />
    <glyph glyph-name="z" unicode="z" horiz-adv-x="985" 
d="M100 113v39q0 38 11 71q9 28 36 62l529 657q8 11 8 19q0 14 -20 14h-498q-17 0 -29 12t-12 29v69q0 17 12 29t29 12h602q115 0 115 -100v-49q0 -57 -47 -113l-539 -674q-10 -10 -10 -22q0 -16 16 -16h541q15 0 28 -13t13 -28v-70q0 -16 -13 -29q-12 -12 -28 -12h-619
q-65 0 -94 33q-31 36 -31 80z" />
    <glyph glyph-name="braceleft" unicode="{" horiz-adv-x="675" 
d="M41 502v119q76 57 98 104q25 55 25 149v365q0 114 26 170q28 60 93 86q68 27 194 27h103q15 0 28 -13t13 -28v-68q0 -16 -13 -29q-12 -12 -28 -12h-93q-92 0 -116 -24q-25 -25 -25 -109v-365q0 -116 -33 -186q-35 -76 -112 -129q77 -53 112 -129q33 -70 33 -184v-361
q0 -83 25 -108t116 -25h95q16 0 28 -12q13 -13 13 -29v-67q0 -16 -13 -29q-12 -12 -28 -12h-105q-121 0 -194 26q-65 23 -93 84q-26 56 -26 172v361q0 89 -27 151q-21 49 -96 105z" />
    <glyph glyph-name="bar" unicode="|" horiz-adv-x="507" 
d="M164 -358v1841q0 14 12 26q13 13 27 13h106q14 0 27 -13q10 -10 10 -26v-1841q0 -17 -10 -27q-12 -12 -27 -12h-106q-15 0 -27 12t-12 27z" />
    <glyph glyph-name="braceright" unicode="}" horiz-adv-x="675" 
d="M55 -289q0 16 13 29q12 12 28 12h94q90 0 115 25q27 27 27 108v361q0 114 33 184q35 76 112 129q-77 53 -112 129q-33 70 -33 186v365q0 82 -27 109q-24 24 -115 24h-92q-16 0 -28 12q-13 13 -13 29v68q0 15 13 28t28 13h103q127 0 194 -27q64 -26 92 -86q27 -59 27 -170
v-365q0 -94 25 -149q22 -47 98 -104v-119q-75 -56 -96 -105q-27 -62 -27 -151v-361q0 -114 -27 -172q-28 -61 -92 -84q-73 -26 -194 -26h-105q-16 0 -28 12q-13 13 -13 29v67z" />
    <glyph glyph-name="asciitilde" unicode="~" 
d="M188 760v53q0 130 60 199q58 67 168 67q84 0 153 -57l174 -139q30 -22 45 -29q24 -12 41 -12q55 0 68 22q14 24 14 92v58q0 15 13 28t28 13h60q15 0 28 -13t13 -28v-58q0 -132 -52 -196q-54 -66 -172 -66q-82 0 -155 58l-150 118q-66 53 -82 60q-8 4 -26 4q-54 0 -70 -29
t-16 -92v-53q0 -16 -13 -29q-12 -12 -28 -12h-60q-16 0 -28 12q-13 13 -13 29z" />
    <glyph glyph-name="uni00A0" unicode="&#xa0;" horiz-adv-x="503" 
 />
    <glyph glyph-name="exclamdown" unicode="&#xa1;" horiz-adv-x="442" 
d="M133 -377l14 1065q0 14 13 27q12 12 28 12h72q17 0 29 -12t12 -27l16 -1065q0 -17 -12 -29q-10 -10 -29 -10h-104q-17 0 -27 10q-12 12 -12 29zM137 895v192q0 17 10 27q12 12 29 12h98q15 0 27 -12t12 -27v-192q0 -15 -12 -27t-27 -12h-98q-16 0 -26 10q-13 13 -13 29z
" />
    <glyph glyph-name="cent" unicode="&#xa2;" 
d="M254 483v160q0 193 88 326q87 131 246 161v191q0 17 12 29t29 12h84q16 0 28 -12q13 -13 13 -29v-182q91 -6 192 -21q22 -3 33 -14q8 -8 8 -31v-74q0 -12 -10 -22q-8 -8 -25 -8h-8q-154 16 -254 16q-125 0 -190 -86q-66 -87 -66 -256v-160q0 -169 66 -256q65 -86 190 -86
q110 0 254 17h8q17 0 25 -8q10 -10 10 -23v-74q0 -22 -8 -30q-12 -12 -33 -15q-83 -14 -192 -20v-185q0 -15 -13 -28t-28 -13h-84q-16 0 -29 13q-12 12 -12 28v193q-160 30 -246 160q-88 133 -88 327z" />
    <glyph glyph-name="sterling" unicode="&#xa3;" 
d="M143 748v86q0 16 13 26t28 10h103v134q0 129 22 225q21 92 74 160q56 72 139 100q91 31 217 31q151 0 318 -27q21 -3 30 -12t9 -23v-84q0 -35 -31 -35h-10q-225 23 -316 23q-157 0 -213 -74q-53 -70 -53 -284v-134h440q14 0 27 -10q12 -9 12 -26v-86q0 -13 -12 -25
t-29 -12h-438v-312q0 -111 -72 -243h654q41 0 41 -31v-90q0 -19 -11 -27t-30 -8h-817q-15 0 -25 10t-10 21v80q0 10 2 14q1 2 2 6.5t2 5.5q6 6 8 10q5 10 6 11q30 49 49 112q15 50 15 129v312h-107q-16 0 -26 10q-11 11 -11 27z" />
    <glyph glyph-name="currency" unicode="&#xa4;" 
d="M117 1171q0 15 10 25l57 55q11 11 23 11q14 0 31 -17l163 -164q98 70 217 70q120 0 218 -70l168 168q15 15 30 15q12 0 23 -11l55 -55q10 -10 10 -22q0 -17 -14 -31l-168 -168q68 -95 68 -213q0 -119 -70 -217l168 -168q14 -14 14 -31q0 -14 -10 -24l-55 -56
q-10 -10 -23 -10q-17 0 -31 14l-172 172q-94 -67 -208 -67q-119 0 -213 67l-168 -168q-16 -16 -33 -16q-11 0 -21 10l-55 58q-10 13 -10 22q0 17 14 31l166 166q-70 94 -70 217q0 117 66 211l-166 166q-14 14 -14 30zM371 764q0 -100 71 -174q69 -72 174 -72q100 0 172 72
q74 74 74 174q0 101 -74 172q-75 72 -172 72q-102 0 -174 -72q-71 -71 -71 -172z" />
    <glyph glyph-name="yen" unicode="&#xa5;" 
d="M74 473v62q0 16 12 28t29 12h411v43l-112 226h-299q-17 0 -29 12t-12 29v61q0 17 12 29t29 12h227l-244 483q-6 15 -6 25q0 16 8 21q9 6 25 6h129q11 0 20 -9q10 -10 15 -20l332 -694l331 694q13 29 35 29h127q16 0 25 -9q10 -10 10 -20q0 -11 -6 -23l-244 -483h225
q17 0 29 -12t12 -29v-61q0 -17 -12 -29t-29 -12h-297l-112 -226v-43h409q17 0 29 -12t12 -28v-62q0 -17 -12 -29t-29 -12h-409v-391q0 -16 -10 -29q-9 -12 -27 -12h-117q-15 0 -24 12q-11 15 -11 29v391h-411q-17 0 -29 12t-12 29z" />
    <glyph glyph-name="brokenbar" unicode="&#xa6;" horiz-adv-x="507" 
d="M164 319q0 17 10 27q12 12 27 12h108q15 0 27 -12q10 -10 10 -27v-710q0 -19 -10 -29q-12 -12 -27 -12h-108q-15 0 -27 12q-10 10 -10 29v710zM164 741v711q0 17 10 27q12 12 27 12h108q15 0 27 -12q10 -10 10 -27v-711q0 -18 -10 -28q-13 -13 -27 -13h-108q-14 0 -27 13
q-10 10 -10 28z" />
    <glyph glyph-name="section" unicode="&#xa7;" horiz-adv-x="1118" 
d="M98 754q0 108 70 215q-35 40 -51 90q-19 59 -19 117q0 178 115 268q118 92 375 92q67 0 194 -10q125 -10 164 -17q19 -4 27 -14q10 -13 10 -25v-88q0 -16 -10 -24q-13 -10 -27 -10h-2q-1 0 -60 3t-108 7q-109 8 -188 8q-121 0 -182 -20q-65 -21 -89 -62q-24 -40 -24 -108
q0 -70 43 -119q48 -54 164 -121l223 -131q178 -103 238 -193q61 -91 61 -217q0 -131 -59 -223q59 -86 59 -207q0 -50 -10 -102q-9 -44 -31 -94q-21 -47 -61 -84q-52 -48 -93 -68q-59 -29 -135 -43q-85 -16 -176 -16q-156 0 -344 28q-15 3 -27 15t-12 24v86q0 16 12 25
q13 10 29 10h4q210 -20 332 -20h6q84 0 150 16q62 15 96 49q32 32 47 76q14 41 14 98q0 81 -43 133q-46 55 -178 133l-229 138q-154 92 -217 180q-58 82 -58 205zM274 754q0 -69 45 -123q47 -55 138 -111l225 -131q104 -64 137 -88q1 4 12 47q3 12 3 47q0 84 -41 131
q-47 54 -168 127l-185 113q-11 9 -45 29q-13 8 -33 21t-24 15q-31 20 -45 31l-12 -37q-1 -4 -5 -26q-2 -12 -2 -45z" />
    <glyph glyph-name="dieresis" unicode="&#xa8;" horiz-adv-x="761" 
d="M123 1352v166q0 16 12 28q13 13 29 13h80q15 0 28 -13t13 -28v-166q0 -16 -13 -29q-10 -10 -28 -10h-80q-19 0 -29 10q-12 12 -12 29zM481 1352v166q0 15 13 28t28 13h80q16 0 29 -13q12 -12 12 -28v-166q0 -17 -12 -29q-10 -10 -29 -10h-80q-18 0 -28 10q-13 13 -13 29z
" />
    <glyph glyph-name="copyright" unicode="&#xa9;" horiz-adv-x="1536" 
d="M102 766q0 136 52 258q54 126 143 215q92 92 211 143q127 54 258 54q178 0 334 -90q153 -89 243 -244q91 -157 91 -336q0 -177 -91 -334q-88 -152 -243 -242q-152 -88 -334 -88t-334 88q-153 89 -242 242q-88 152 -88 334zM190 766q0 -158 76 -289t211 -209
q129 -75 289 -75q120 0 225 45q107 46 183 122q79 79 124 183q45 105 45 223q0 158 -77 291q-78 135 -209 211q-135 78 -291 78q-154 0 -289 -78q-134 -77 -211 -211q-76 -131 -76 -291zM444 705v135q0 194 86 286q85 91 228 91q102 0 186 -17q31 -3 31 -29v-57
q0 -24 -27 -24h-6q-120 10 -184 10q-84 0 -135 -60q-52 -61 -52 -200v-135q0 -138 52 -199q51 -60 135 -60q77 0 184 11h4q29 0 29 -27v-55q0 -14 -10 -21q-11 -8 -21 -10q-66 -14 -186 -14q-142 0 -228 92t-86 283z" />
    <glyph glyph-name="ordfeminine" unicode="&#xaa;" horiz-adv-x="600" 
d="M61 1063v14q0 98 70 144q68 45 221 45h66v26q0 73 -25 101t-86 28q-42 0 -172 -10h-4q-11 0 -20 6t-9 21v43q0 25 31 28q114 19 174 19q121 0 178 -60q56 -59 56 -176v-370q0 -27 -21 -33q-95 -27 -201 -27q-135 0 -196 49q-62 50 -62 152zM180 1063q0 -57 29 -80
q31 -25 110 -25q42 0 101 11v211h-47h-19q-98 -3 -137 -25q-37 -21 -37 -78v-14z" />
    <glyph glyph-name="guillemotleft" unicode="&#xab;" horiz-adv-x="1255" 
d="M61 567q0 35 23 58l346 346q20 20 43 20h119q22 0 22 -18q0 -15 -12 -27l-364 -379l364 -379q12 -12 12 -26q0 -19 -22 -19h-119q-22 0 -43 21l-346 346q-23 23 -23 57zM594 567q0 36 22 58l347 346q20 20 43 20h118q23 0 23 -18q0 -15 -12 -27l-365 -379l365 -379
q12 -12 12 -26q0 -6 -6 -12q-7 -7 -17 -7h-118q-22 0 -43 21l-347 346q-22 22 -22 57z" />
    <glyph glyph-name="logicalnot" unicode="&#xac;" 
d="M184 987v82q0 33 41 33h795q14 0 24 -10q11 -11 11 -25v-561q0 -16 -13 -29q-12 -12 -28 -12h-66q-16 0 -28 12q-13 13 -13 29v448h-682q-41 0 -41 33z" />
    <glyph glyph-name="uni00AD" unicode="&#xad;" horiz-adv-x="679" 
d="M98 559v80q0 16 11 27q10 10 28 10h408q15 0 28 -10q11 -8 11 -27v-80q0 -16 -11 -24q-15 -11 -28 -11h-408q-39 0 -39 35z" />
    <glyph glyph-name="registered" unicode="&#xae;" horiz-adv-x="1222" 
d="M61 991q0 112 43 213q44 103 117 176q77 77 176 119q101 43 215 43t215 -43q105 -45 177 -117q71 -71 116 -176q45 -106 45 -215t-45 -215q-43 -101 -116 -174q-72 -72 -177 -117q-101 -43 -215 -43t-215 43q-103 44 -176 117q-75 75 -117 174q-43 101 -43 215zM147 991
q0 -193 136 -329t329 -136t332 136q137 134 137 329q0 131 -63 236q-64 106 -170 170q-105 63 -236 63q-195 0 -329 -137q-136 -139 -136 -332zM385 682v618q0 43 37 46q47 6 156 6q132 0 200 -47t68 -160v-8q0 -145 -137 -185l157 -256q4 -12 4 -18q0 -27 -24 -27h-58
q-16 0 -24 17l-166 262l-25 6h-81v-254q0 -11 -9 -20q-11 -11 -20 -11h-51q-8 0 -19 11q-8 8 -8 20zM489 1026q2 0 18.5 -1t31.5 -1h45q81 0 123 27q36 23 36 86v8q0 63 -36 86q-37 24 -123 24h-66h-29v-229z" />
    <glyph glyph-name="macron" unicode="&#xaf;" horiz-adv-x="761" 
d="M47 1417v70q0 17 12 26t29 9h590q17 0 29 -9t12 -26v-70q0 -17 -12 -26t-29 -9h-590q-17 0 -29 9t-12 26z" />
    <glyph glyph-name="degree" unicode="&#xb0;" horiz-adv-x="698" 
d="M59 1245q0 119 86 205t207 86q119 0 205 -86t86 -205t-86 -205t-205 -86q-121 0 -207 86t-86 205zM172 1245q0 -74 53 -127t127 -53t127 53t53 127t-53 127t-127 53t-127 -53t-53 -127z" />
    <glyph glyph-name="plusminus" unicode="&#xb1;" 
d="M154 33v67q0 33 41 33h849q41 0 41 -33v-67q0 -33 -41 -33h-849q-41 0 -41 33zM154 760v82q0 32 41 32h350v353q0 41 33 41h81q33 0 33 -41v-353h352q41 0 41 -32v-82q0 -33 -41 -33h-352v-350q0 -41 -33 -41h-81q-33 0 -33 41v350h-350q-41 0 -41 33z" />
    <glyph glyph-name="uni00B2" unicode="&#xb2;" horiz-adv-x="679" 
d="M80 707v90q0 186 176 303l113 74h-2q67 52 86 73q20 23 20 68q0 50 -35 74q-34 24 -114 24q-76 0 -199 -18q-15 0 -25 10q-8 8 -8 27v38q0 28 31 37q85 21 201 21q142 0 208 -51q70 -54 70 -162q0 -66 -35 -119q-31 -47 -112 -109q-98 -62 -107 -71q-88 -60 -117 -105
q-30 -47 -30 -114v-9h354q14 0 27 -10q10 -8 10 -24v-47q0 -18 -12 -27q-13 -10 -25 -10h-438q-12 0 -25 10q-12 9 -12 27z" />
    <glyph glyph-name="uni00B3" unicode="&#xb3;" horiz-adv-x="679" 
d="M84 721v37q0 37 39 37q110 -17 184 -17q78 0 119 33q37 30 37 102v23q0 46 -27 84q-27 37 -86 37h-200q-35 0 -35 33v40q0 35 35 35h200q64 0 88 35q25 36 25 82v14q0 61 -37 88q-40 29 -119 29q-33 0 -164 -16h-12q-3 0 -6.5 -1t-5.5 -1q-15 0 -25 10t-10 27v36
q0 27 31 39q108 21 192 21q138 0 215 -53q76 -52 76 -179v-14q0 -114 -88 -172q88 -55 88 -174v-23q0 -127 -78 -190q-76 -61 -213 -61q-74 0 -190 22q-15 4 -23 12q-10 10 -10 25z" />
    <glyph glyph-name="acute" unicode="&#xb4;" horiz-adv-x="761" 
d="M266 1290q0 13 8 21l201 254q16 19 23 24q9 6 26 6h135q23 0 23 -14q0 -8 -8 -16l-232 -258q-3 -3 -6 -9q-1 -2 -4 -4l-4 -2l-4 -6q-4 -4 -6 -4q-1 0 -3 -2t-3 -2t-4.5 -1t-4.5 -1h-8h-110q-19 0 -19 14z" />
    <glyph glyph-name="paragraph" unicode="&#xb6;" horiz-adv-x="1271" 
d="M92 995v70q0 215 133 336t350 121h533q33 0 33 -39v-1843q0 -12 -11 -27q-9 -12 -24 -12h-47q-16 0 -25 12q-10 13 -10 27v1771h-119v-1771q0 -14 -10 -27q-9 -12 -25 -12h-47q-15 0 -24 12q-11 15 -11 27v899h-213q-218 0 -350 120q-133 121 -133 336z" />
    <glyph glyph-name="periodcentered" unicode="&#xb7;" horiz-adv-x="436" 
d="M131 707v190q0 17 10 27q12 12 29 12h98q17 0 27 -10q12 -12 12 -29v-190q0 -19 -10 -29q-12 -12 -29 -12h-98q-15 0 -27 12t-12 29z" />
    <glyph glyph-name="cedilla" unicode="&#xb8;" horiz-adv-x="747" 
d="M104 -371q0 12 9 21l198 254q16 20 23 24q9 6 28 6h136q22 0 22 -14q0 -8 -8 -16l-231 -258l-3 -2q-3 -2 -4 -4l-6 -7q-2 -4 -4 -6q-4 -4 -6 -4l-4 -4q-2 -2 -6 -2q-1 0 -3 -1t-3 -1h-9h-110q-19 0 -19 14z" />
    <glyph glyph-name="uni00B9" unicode="&#xb9;" horiz-adv-x="679" 
d="M111 1348v57q0 21 20 27l164 77q29 13 65 13h13q15 0 24 -6q11 -7 11 -13v-20v-774q0 -12 -11 -27q-9 -12 -24 -12h-62q-15 0 -24 12q-11 15 -11 27v667l-131 -55q-34 -12 -34 27z" />
    <glyph glyph-name="ordmasculine" unicode="&#xba;" horiz-adv-x="657" 
d="M66 1159v72q0 143 67 219q69 78 199 78q129 0 196 -76q68 -77 68 -221v-72q0 -144 -68 -221q-67 -76 -196 -76q-132 0 -199 76t-67 221zM188 1159q0 -190 144 -190q71 0 106 47q33 44 33 143v72q0 97 -33 141q-35 47 -106 47q-74 0 -109 -47t-35 -141v-72z" />
    <glyph glyph-name="guillemotright" unicode="&#xbb;" horiz-adv-x="1255" 
d="M111 162q0 14 12 26l364 379l-364 379q-12 12 -12 27q0 18 22 18h119q23 0 43 -20l346 -346q23 -23 23 -58q0 -34 -23 -57l-346 -346q-21 -21 -43 -21h-119q-22 0 -22 19zM643 162q0 14 12 26l365 379l-365 379q-12 12 -12 27q0 18 23 18h118q23 0 43 -20l347 -346
q22 -22 22 -58q0 -35 -22 -57l-347 -346q-21 -21 -43 -21h-118q-10 0 -17 7q-6 6 -6 12z" />
    <glyph glyph-name="onequarter" unicode="&#xbc;" horiz-adv-x="1515" 
d="M82 1348v57q0 21 20 27l164 77q29 13 66 13h12q16 0 25 -6q10 -7 10 -13v-20v-774q0 -14 -10 -27q-9 -12 -25 -12h-61q-16 0 -25 12q-10 13 -10 27v667l-131 -55q-35 -12 -35 27zM156 8q0 14 8 25l856 1450q20 28 22 30q9 9 25 9h104q17 0 17 -13q0 -3 -10 -26
l-856 -1450q-13 -23 -23 -33q-8 -8 -23 -8h-100q-20 0 -20 16zM819 276v41q0 31 17 54l331 458q13 23 41 23h64q47 0 47 -41v-477h78q13 0 26 -10t13 -25v-45q0 -17 -11 -25q-13 -10 -28 -10h-78v-180q0 -14 -10 -27q-9 -12 -27 -12h-63q-16 0 -25 12q-10 13 -10 27v180
h-301q-34 0 -49 12t-15 45zM954 334h232v332z" />
    <glyph glyph-name="onehalf" unicode="&#xbd;" horiz-adv-x="1521" 
d="M82 1348v57q0 21 20 27l164 77q29 13 66 13h12q16 0 25 -6q10 -7 10 -13v-20v-774q0 -14 -10 -27q-9 -12 -25 -12h-61q-16 0 -25 12q-10 13 -10 27v667l-131 -55q-35 -12 -35 27zM156 8q0 14 8 25l856 1450q20 28 22 30q9 9 25 9h104q17 0 17 -13q0 -3 -10 -26
l-856 -1450q-13 -23 -23 -33q-8 -8 -23 -8h-100q-20 0 -20 16zM920 37v90q0 186 176 303l112 74h-2q59 43 86 74q21 24 21 67q0 52 -35 74q-38 24 -115 24q-75 0 -198 -18q-15 0 -25 10q-8 8 -8 27v39q0 28 31 37q76 20 200 20q141 0 209 -53q70 -54 70 -160q0 -66 -35 -119
q-29 -43 -113 -108q-102 -69 -106 -72q-89 -61 -117 -104q-31 -48 -31 -115v-8h355q13 0 26 -10q11 -8 11 -25v-47q0 -19 -11 -27q-13 -10 -26 -10h-439q-11 0 -24 10q-12 9 -12 27z" />
    <glyph glyph-name="threequarters" unicode="&#xbe;" horiz-adv-x="1689" 
d="M82 721v37q0 37 39 37q111 -17 184 -17q78 0 119 33q37 30 37 102v23q0 46 -27 84q-27 37 -86 37h-201q-34 0 -34 33v40q0 35 34 35h201q64 0 88 35q25 36 25 82v14q0 63 -35 88q-40 29 -121 29q-33 0 -164 -16h-12q-3 0 -6.5 -1t-5.5 -1q-15 0 -25 10t-10 27v36
q0 27 31 39q108 21 192 21q138 0 215 -53q76 -52 76 -179v-14q0 -114 -88 -172q88 -55 88 -174v-23q0 -127 -78 -190q-76 -61 -213 -61q-74 0 -190 22q-15 4 -23 12q-10 10 -10 25zM328 8q0 14 8 25l856 1450q20 28 22 30q9 9 25 9h104q17 0 17 -13q0 -3 -10 -26l-856 -1450
q-13 -23 -23 -33q-8 -8 -22 -8h-101q-20 0 -20 16zM993 276v41q0 31 17 54l331 458q13 23 41 23h64q47 0 47 -41v-477h78q13 0 26 -10t13 -25v-45q0 -17 -11 -25q-13 -10 -28 -10h-78v-180q0 -14 -10 -27q-9 -12 -27 -12h-63q-16 0 -25 12q-10 13 -10 27v180h-301
q-34 0 -49 12t-15 45zM1128 334h232v332z" />
    <glyph glyph-name="questiondown" unicode="&#xbf;" horiz-adv-x="911" 
d="M109 -78q0 78 38 152q36 71 148 198l92 105q50 59 64 76q20 24 32 57q13 37 13 78v100q0 17 12 29q10 10 29 10h90q18 0 28 -10q11 -11 11 -29v-100q0 -96 -27 -158q-25 -58 -109 -151l-94 -105q-79 -88 -100 -135q-27 -59 -27 -117v-24q0 -77 51 -113q50 -35 158 -35
q92 0 277 19h6q30 0 30 -35v-72q0 -24 -6 -33q-7 -11 -28 -14q-141 -27 -279 -27q-409 0 -409 310v24zM494 897v190q0 14 10 27q9 12 28 12h99q16 0 28 -12q13 -13 13 -27v-190q0 -16 -13 -29q-12 -12 -28 -12h-99q-14 0 -26 12t-12 29z" />
    <glyph glyph-name="Agrave" unicode="&#xc0;" horiz-adv-x="1294" 
d="M59 33q0 12 2 14l379 1333q23 83 82 121q55 35 127 35q66 0 125 -35q58 -34 82 -119l379 -1335q2 -2 2 -14q0 -15 -8 -23q-10 -10 -27 -10h-121q-25 0 -34 31l-134 471h-530l-131 -471q-3 -13 -14 -21q-13 -10 -23 -10h-121q-14 0 -24 10q-11 11 -11 23zM373 1931
q0 15 22 15h135q16 0 27 -7q11 -8 25 -24l198 -254q8 -8 8 -21q0 -14 -18 -14h-111h-10q-1 0 -4 1t-4 1q-2 0 -8 6l-6 6q-2 5 -6 9l-9 8l-231 258q-8 8 -8 16zM422 664h452l-186 673q-9 37 -39 37q-32 0 -41 -37z" />
    <glyph glyph-name="Aacute" unicode="&#xc1;" horiz-adv-x="1294" 
d="M59 33q0 12 2 14l379 1333q23 83 82 121q55 35 127 35q66 0 125 -35q58 -34 82 -119l379 -1335q2 -2 2 -14q0 -15 -8 -23q-10 -10 -27 -10h-121q-25 0 -34 31l-134 471h-530l-131 -471q-3 -13 -14 -21q-13 -10 -23 -10h-121q-14 0 -24 10q-11 11 -11 23zM422 664h452
l-186 673q-9 37 -39 37q-32 0 -41 -37zM545 1640q0 13 8 21l201 254q8 10 16 18q8 7 12 9q12 4 21 4h135q23 0 23 -15q0 -7 -9 -16l-231 -258q-4 -4 -6 -8q-1 -2 -6 -7l-7 -6q-4 -4 -6 -4q-1 0 -3 -2t-3 -2t-4 -1t-4 -1h-8h-111q-18 0 -18 14z" />
    <glyph glyph-name="Acircumflex" unicode="&#xc2;" horiz-adv-x="1294" 
d="M59 33q0 12 2 14l379 1333q23 83 82 121q55 35 127 35q66 0 125 -35q58 -34 82 -119l379 -1335q2 -2 2 -14q0 -15 -8 -23q-10 -10 -27 -10h-121q-25 0 -34 31l-134 471h-530l-131 -471q-3 -13 -14 -21q-13 -10 -23 -10h-121q-14 0 -24 10q-11 11 -11 23zM317 1640
q0 12 9 21l196 254q4 5 17 18q7 7 12 9q12 4 20 4h174q17 0 27 -7q11 -8 25 -24l194 -254q8 -8 8 -21q0 -14 -18 -14h-107h-10q-1 0 -4 1t-4 1q-2 0 -8 6l-6 6q-2 5 -6 9l-9 8l-168 198l-170 -198q-4 -4 -6 -8q-1 -2 -5 -5l-3 -2l-4 -6q-4 -4 -6 -4q-1 0 -3 -2t-3 -2t-4 -1
t-4 -1h-9h-106q-19 0 -19 14zM422 664h452l-186 673q-9 37 -39 37q-32 0 -41 -37z" />
    <glyph glyph-name="Atilde" unicode="&#xc3;" horiz-adv-x="1294" 
d="M59 33q0 12 2 14l379 1333q23 83 82 121q55 35 127 35q66 0 125 -35q58 -34 82 -119l379 -1335q2 -2 2 -14q0 -15 -8 -23q-10 -10 -27 -10h-121q-25 0 -34 31l-134 471h-530l-131 -471q-3 -13 -14 -21q-13 -10 -23 -10h-121q-14 0 -24 10q-11 11 -11 23zM291 1667v43
q0 109 51 166t143 57q59 0 123 -49l146 -115q36 -28 71 -28q30 0 47 20q15 18 15 70v47q0 15 10 25t25 10h63q13 0 23 -10t10 -25v-47q0 -111 -45 -162q-47 -53 -148 -53q-76 0 -131 43l-125 100q-42 33 -51 37q-20 8 -33 8q-33 0 -49 -22q-14 -20 -14 -72v-43
q0 -15 -10 -25t-25 -10h-63q-13 0 -23 10t-10 25zM422 664h452l-186 673q-9 37 -39 37q-32 0 -41 -37z" />
    <glyph glyph-name="Adieresis" unicode="&#xc4;" horiz-adv-x="1294" 
d="M59 33q0 12 2 14l379 1333q23 83 82 121q55 35 127 35q66 0 125 -35q58 -34 82 -119l379 -1335q2 -2 2 -14q0 -15 -8 -23q-10 -10 -27 -10h-121q-25 0 -34 31l-134 471h-530l-131 -471q-3 -13 -14 -21q-13 -10 -23 -10h-121q-14 0 -24 10q-11 11 -11 23zM401 1694v166
q0 15 13 28t28 13h80q16 0 29 -13q12 -12 12 -28v-166q0 -17 -12 -29q-10 -10 -29 -10h-80q-18 0 -28 10q-13 13 -13 29zM422 664h452l-186 673q-9 37 -39 37q-32 0 -41 -37zM760 1694v166q0 16 12 28q13 13 29 13h80q15 0 28 -13t13 -28v-166q0 -16 -13 -29
q-10 -10 -28 -10h-80q-19 0 -29 10q-12 12 -12 29z" />
    <glyph glyph-name="Aring" unicode="&#xc5;" horiz-adv-x="1294" 
d="M59 33q0 12 2 14l379 1333q23 83 82 121q55 35 127 35q66 0 125 -35q58 -34 82 -119l379 -1335q2 -2 2 -14q0 -15 -8 -23q-10 -10 -27 -10h-121q-25 0 -34 31l-134 471h-530l-131 -471q-3 -13 -14 -21q-13 -10 -23 -10h-121q-14 0 -24 10q-11 11 -11 23zM422 664h452
l-186 673q-9 37 -39 37q-32 0 -41 -37zM438 1798q0 86 62 148q61 61 147 61q85 0 146 -61t61 -148q0 -86 -61 -147q-60 -60 -146 -60q-87 0 -147 60q-62 62 -62 147zM541 1800q0 -46 30 -76q32 -32 76 -32q39 0 76 32q33 29 33 76t-33 76q-36 31 -76 31q-45 0 -76 -31
q-30 -30 -30 -76z" />
    <glyph glyph-name="AE" unicode="&#xc6;" horiz-adv-x="1757" 
d="M39 33q0 12 2 14l379 1321q47 154 209 154h997q8 0 14 -9q7 -11 7 -20v-109q0 -24 -23 -24h-586v-490h568q16 0 28 -12q13 -13 13 -29v-77q0 -16 -13 -29q-12 -12 -28 -12h-568v-344q0 -86 17 -127q18 -43 73 -64q58 -22 162 -22h334q9 0 16 -7t7 -18v-100q0 -9 -7 -19
t-14 -10q-123 -14 -338 -14q-217 0 -327 90q-109 89 -109 291v135h-490l-131 -471q-2 -9 -14 -21q-10 -10 -22 -10h-121q-15 0 -25 10t-10 23zM401 664h451v696h-223q-32 0 -41 -35z" />
    <glyph glyph-name="Ccedilla" unicode="&#xc7;" horiz-adv-x="1114" 
d="M123 618v285q0 149 33 258q37 121 84 182q52 67 125 113t145 64q65 16 154 16q142 0 344 -33q32 -3 32 -26v-105q0 -22 -24 -22h-6q-221 18 -344 18q-78 0 -142 -25q-62 -24 -112 -77q-49 -52 -76 -144t-27 -219v-285q0 -126 27 -217q28 -94 76 -145q53 -56 112 -78
q64 -24 142 -24q128 0 338 16h8q32 0 32 -33v-84q0 -35 -40 -41q-153 -26 -340 -26q-80 0 -154 18q-77 19 -145 62q-72 45 -125 114q-47 61 -84 182q-33 109 -33 256zM365 -371q0 10 8 21l198 254q21 30 52 30h135q22 0 22 -14q0 -8 -8 -16l-231 -258q-4 -4 -6 -8l-7 -7
l-6 -6q-4 -4 -6 -4q-1 0 -3 -2t-3 -2t-3 -1t-3 -1h-10h-111q-18 0 -18 14z" />
    <glyph glyph-name="Egrave" unicode="&#xc8;" horiz-adv-x="1126" 
d="M160 367v788q0 203 108 291q110 90 328 90q270 0 399 -12q8 0 15 -11q6 -9 6 -18v-102q0 -13 -6 -19t-17 -6h-395q-104 0 -162 -22q-56 -21 -74 -64q-16 -39 -16 -127v-285h629q17 0 29 -12t12 -29v-77q0 -17 -12 -29t-29 -12h-629v-344q0 -88 16 -127q18 -43 74 -64
q58 -22 162 -22h395q10 0 17 -7q6 -6 6 -18v-104q0 -10 -6 -19q-7 -10 -15 -10q-110 -10 -399 -10q-218 0 -328 90q-108 88 -108 291zM322 1929q0 15 22 15h135q17 0 27 -7q9 -6 24 -24l199 -254q8 -8 8 -21q0 -14 -18 -14h-111h-10q-1 0 -4 1t-4 1q-2 0 -8 6l-7 6
q-2 5 -6 9l-8 8l-231 258q-8 8 -8 16z" />
    <glyph glyph-name="Eacute" unicode="&#xc9;" horiz-adv-x="1126" 
d="M160 367v788q0 203 108 291q110 90 328 90q270 0 399 -12q8 0 15 -11q6 -9 6 -18v-102q0 -13 -6 -19t-17 -6h-395q-104 0 -162 -22q-56 -21 -74 -64q-16 -39 -16 -127v-285h629q17 0 29 -12t12 -29v-77q0 -17 -12 -29t-29 -12h-629v-344q0 -88 16 -127q18 -43 74 -64
q58 -22 162 -22h395q10 0 17 -7q6 -6 6 -18v-104q0 -10 -6 -19q-7 -10 -15 -10q-110 -10 -399 -10q-218 0 -328 90q-108 88 -108 291zM477 1640q0 13 8 21l201 254q8 10 16 18q7 7 13 9q12 4 20 4h135q23 0 23 -15q0 -8 -8 -16l-232 -258q-4 -4 -6 -8q-1 -2 -5 -5l-3 -2
l-4 -6q-4 -4 -6 -4q-1 0 -3 -2t-3 -2t-4.5 -1t-4.5 -1h-8h-110q-19 0 -19 14z" />
    <glyph glyph-name="Ecircumflex" unicode="&#xca;" horiz-adv-x="1126" 
d="M160 367v788q0 203 108 291q110 90 328 90q270 0 399 -12q8 0 15 -11q6 -9 6 -18v-102q0 -13 -6 -19t-17 -6h-395q-104 0 -162 -22q-56 -21 -74 -64q-16 -39 -16 -127v-285h629q17 0 29 -12t12 -29v-77q0 -17 -12 -29t-29 -12h-629v-344q0 -88 16 -127q18 -43 74 -64
q58 -22 162 -22h395q10 0 17 -7q6 -6 6 -18v-104q0 -10 -6 -19q-7 -10 -15 -10q-110 -10 -399 -10q-218 0 -328 90q-108 88 -108 291zM252 1640q0 13 8 21l197 254q8 10 16 18q7 7 12 9q12 4 21 4h174q16 0 27 -7q9 -6 24 -24l195 -254q8 -8 8 -21q0 -14 -19 -14h-106h-10
q-1 0 -4 1t-4 1t-7 6l-6 6l-8 9l-8 8l-168 198l-170 -198q-4 -4 -6 -8q-1 -2 -6 -7l-6 -6q-4 -4 -7 -4q-1 0 -3 -2t-3 -2t-4 -1t-4 -1h-8h-107q-18 0 -18 14z" />
    <glyph glyph-name="Edieresis" unicode="&#xcb;" horiz-adv-x="1126" 
d="M160 367v788q0 203 108 291q110 90 328 90q270 0 399 -12q8 0 15 -11q6 -9 6 -18v-102q0 -13 -6 -19t-17 -6h-395q-104 0 -162 -22q-56 -21 -74 -64q-16 -39 -16 -127v-285h629q17 0 29 -12t12 -29v-77q0 -17 -12 -29t-29 -12h-629v-344q0 -88 16 -127q18 -43 74 -64
q58 -22 162 -22h395q10 0 17 -7q6 -6 6 -18v-104q0 -10 -6 -19q-7 -10 -15 -10q-110 -10 -399 -10q-218 0 -328 90q-108 88 -108 291zM348 1698v166q0 16 12 28q13 13 29 13h80q16 0 29 -13q12 -12 12 -28v-166q0 -17 -12 -29q-10 -10 -29 -10h-80q-19 0 -29 10
q-12 12 -12 29zM707 1698v166q0 14 14 28q13 13 27 13h79q14 0 27 -13q14 -14 14 -28v-166q0 -17 -12 -29q-10 -10 -29 -10h-79q-19 0 -29 10q-12 12 -12 29z" />
    <glyph glyph-name="Igrave" unicode="&#xcc;" horiz-adv-x="544" 
d="M-10 1931q0 15 22 15h135q17 0 27 -7q11 -8 25 -24l198 -254q9 -9 9 -21q0 -14 -19 -14h-111h-10q-1 0 -4 1t-4 1q-2 0 -8 6l-6 6q-2 5 -6 9l-9 8l-231 258q-8 8 -8 16zM180 41v1442q0 15 10 28q8 11 27 11h113q15 0 26 -11t11 -28v-1442q0 -14 -11 -29q-9 -12 -26 -12
h-113q-15 0 -27 12q-10 10 -10 29z" />
    <glyph glyph-name="Iacute" unicode="&#xcd;" horiz-adv-x="544" 
d="M141 1640q0 12 9 21l200 254q4 5 17 18q7 7 12 9q12 4 20 4h136q22 0 22 -15q0 -8 -8 -16l-232 -258q-4 -4 -6 -8q-1 -2 -5 -5l-3 -2l-4 -6q-4 -4 -6 -4q-1 0 -3 -2t-3 -2t-4 -1t-4 -1h-9h-110q-19 0 -19 14zM180 41v1442q0 15 10 28q8 11 27 11h113q15 0 26 -11t11 -28
v-1442q0 -14 -11 -29q-9 -12 -26 -12h-113q-15 0 -27 12q-10 10 -10 29z" />
    <glyph glyph-name="Icircumflex" unicode="&#xce;" horiz-adv-x="544" 
d="M-76 1640q0 13 8 21l197 254q8 10 16 18q7 7 13 9q12 4 20 4h174q16 0 27 -7q9 -6 24 -24l195 -254q8 -8 8 -21q0 -14 -18 -14h-107h-10q-1 0 -4 1t-4 1q-2 0 -8 6l-6 6q-3 5 -7 9l-8 8l-168 198l-170 -198q-4 -4 -6 -8q-1 -2 -6 -7l-6 -6q-4 -4 -6 -4q-1 0 -3 -2t-3 -2
t-4.5 -1t-4.5 -1h-8h-106q-19 0 -19 14zM180 41v1442q0 15 10 28q8 11 27 11h113q15 0 26 -11t11 -28v-1442q0 -14 -11 -29q-9 -12 -26 -12h-113q-15 0 -27 12q-10 10 -10 29z" />
    <glyph glyph-name="Idieresis" unicode="&#xcf;" horiz-adv-x="544" 
d="M14 1696v166q0 15 13 28t28 13h80q16 0 29 -13q12 -12 12 -28v-166q0 -17 -12 -29q-10 -10 -29 -10h-80q-18 0 -28 10q-13 13 -13 29zM180 41v1442q0 15 10 28q8 11 27 11h113q15 0 26 -11t11 -28v-1442q0 -14 -11 -29q-9 -12 -26 -12h-113q-15 0 -27 12q-10 10 -10 29z
M373 1696v166q0 16 12 28q13 13 29 13h80q15 0 28 -13t13 -28v-166q0 -16 -13 -29q-10 -10 -28 -10h-80q-19 0 -29 10q-12 12 -12 29z" />
    <glyph glyph-name="Eth" unicode="&#xd0;" horiz-adv-x="1310" 
d="M41 752v77q0 17 12 29t29 12h78v594q0 46 43 52q111 20 372 20q291 0 457 -158q164 -156 164 -479v-276q0 -319 -164 -478t-457 -159q-261 0 -372 20q-43 6 -43 51v654h-78q-17 0 -29 12t-12 29zM348 150q69 -5 227 -5q100 0 173 23q72 23 137 78q56 48 92 147
q33 90 33 230v276q0 103 -23 193q-21 81 -59 135q-38 53 -94 88q-57 35 -119 47q-75 14 -140 14q-125 0 -227 -6v-500h211q17 0 29 -12t12 -29v-77q0 -17 -12 -29t-29 -12h-211v-561z" />
    <glyph glyph-name="Ntilde" unicode="&#xd1;" horiz-adv-x="1390" 
d="M160 25v1439q0 28 16 41q20 17 43 17h113q40 0 55 -9q19 -11 29 -32l628 -1196l5 -6q2 0 2 6v1198q0 13 10 26t26 13h109q19 0 27 -11q10 -13 10 -28v-1424q0 -27 -16 -43t-43 -16h-127q-49 0 -66 33l-633 1202q-3 6 -6 6q-2 0 -2 -6v-1196q0 -17 -10 -27
q-12 -12 -27 -12h-106q-37 0 -37 25zM313 1663v43q0 108 52 166q51 57 143 57q59 0 123 -49l145 -115q36 -28 72 -28q30 0 47 20q14 17 14 70v47q0 13 11 24t24 11h64q11 0 22 -11q10 -10 10 -24v-47q0 -111 -45 -162q-47 -53 -147 -53q-76 0 -131 43l-125 100
q-42 33 -51 37q-20 8 -33 8q-33 0 -49 -22q-15 -21 -15 -72v-43q0 -15 -10 -25t-24 -10h-64q-12 0 -22 10q-11 11 -11 25z" />
    <glyph glyph-name="Ograve" unicode="&#xd2;" horiz-adv-x="1351" 
d="M123 629v264q0 165 41 293q38 118 117 200q71 74 174 113q98 37 223 37t223 -37q103 -39 174 -113q76 -79 115 -200q41 -128 41 -293v-264q0 -163 -41 -291q-40 -125 -115 -203q-70 -72 -174 -112q-98 -37 -223 -37t-223 37q-104 40 -174 112q-78 81 -117 203
q-41 128 -41 291zM311 629q0 -475 367 -475q364 0 364 475v264q0 249 -94 362t-270 113q-367 0 -367 -475v-264zM397 1931q0 15 23 15h135q17 0 27 -7q9 -6 24 -24l199 -254q8 -8 8 -21q0 -14 -18 -14h-111h-10q-1 0 -4 1t-4 1t-7 6l-6 6l-8 9l-8 8l-231 258q-9 9 -9 16z
" />
    <glyph glyph-name="Oacute" unicode="&#xd3;" horiz-adv-x="1351" 
d="M123 629v264q0 165 41 293q38 118 117 200q71 74 174 113q98 37 223 37t223 -37q103 -39 174 -113q76 -79 115 -200q41 -128 41 -293v-264q0 -163 -41 -291q-40 -125 -115 -203q-70 -72 -174 -112q-98 -37 -223 -37t-223 37q-104 40 -174 112q-78 81 -117 203
q-41 128 -41 291zM311 629q0 -475 367 -475q364 0 364 475v264q0 249 -94 362t-270 113q-367 0 -367 -475v-264zM520 1640q0 13 8 21l201 254q8 10 16 18q7 7 13 9q12 4 20 4h135q23 0 23 -15q0 -8 -8 -16l-232 -258q-4 -4 -6 -8q-1 -2 -4 -5l-4 -2l-4 -6q-4 -4 -6 -4
q-1 0 -3 -2t-3 -2t-4.5 -1t-4.5 -1h-8h-110q-19 0 -19 14z" />
    <glyph glyph-name="Ocircumflex" unicode="&#xd4;" horiz-adv-x="1351" 
d="M123 629v264q0 165 41 293q38 118 117 200q71 74 174 113q98 37 223 37t223 -37q103 -39 174 -113q76 -79 115 -200q41 -128 41 -293v-264q0 -163 -41 -291q-40 -125 -115 -203q-70 -72 -174 -112q-98 -37 -223 -37t-223 37q-104 40 -174 112q-78 81 -117 203
q-41 128 -41 291zM311 629q0 -475 367 -475q364 0 364 475v264q0 249 -94 362t-270 113q-367 0 -367 -475v-264zM336 1642q0 13 8 21l197 254q8 10 16 18q7 7 12 9q12 4 21 4h174q18 0 27 -6q7 -5 24 -25l195 -254q8 -8 8 -21q0 -14 -19 -14h-106h-10q-1 0 -4.5 1t-4.5 1
l-6 6l-6 6l-8 9l-8 8l-168 199l-170 -199q-4 -4 -6 -8l-6 -6l-7 -7q-4 -4 -6 -4q-1 0 -3 -2t-3 -2t-4 -1t-4 -1h-8h-107q-18 0 -18 14z" />
    <glyph glyph-name="Otilde" unicode="&#xd5;" horiz-adv-x="1351" 
d="M123 629v264q0 165 41 293q38 118 117 200q71 74 174 113q98 37 223 37t223 -37q103 -39 174 -113q76 -79 115 -200q41 -128 41 -293v-264q0 -163 -41 -291q-40 -125 -115 -203q-70 -72 -174 -112q-98 -37 -223 -37t-223 37q-104 40 -174 112q-78 81 -117 203
q-41 128 -41 291zM311 629q0 -475 367 -475q364 0 364 475v264q0 249 -94 362t-270 113q-367 0 -367 -475v-264zM319 1667v43q0 108 52 166q51 57 143 57q59 0 123 -49l145 -115q36 -28 72 -28q30 0 47 20q14 17 14 70v47q0 14 11 25q10 10 24 10h64q12 0 22 -10
q11 -11 11 -25v-47q0 -110 -46 -162q-47 -53 -147 -53q-76 0 -131 43l-125 100q-41 33 -51 37q-20 8 -33 8q-33 0 -49 -22q-14 -20 -14 -72v-43q0 -10 -11 -25q-8 -10 -24 -10h-64q-12 0 -22 10q-11 11 -11 25z" />
    <glyph glyph-name="Odieresis" unicode="&#xd6;" horiz-adv-x="1351" 
d="M123 629v264q0 165 41 293q38 118 117 200q71 74 174 113q98 37 223 37t223 -37q103 -39 174 -113q76 -79 115 -200q41 -128 41 -293v-264q0 -163 -41 -291q-40 -125 -115 -203q-70 -72 -174 -112q-98 -37 -223 -37t-223 37q-104 40 -174 112q-78 81 -117 203
q-41 128 -41 291zM311 629q0 -475 367 -475q364 0 364 475v264q0 249 -94 362t-270 113q-367 0 -367 -475v-264zM418 1698v166q0 16 12 28q13 13 29 13h80q15 0 28 -13t13 -28v-166q0 -16 -13 -29q-10 -10 -28 -10h-80q-19 0 -29 10q-12 12 -12 29zM776 1698v166q0 16 12 28
q13 13 29 13h80q16 0 29 -13q12 -12 12 -28v-166q0 -17 -12 -29q-10 -10 -29 -10h-80q-19 0 -29 10q-12 12 -12 29z" />
    <glyph glyph-name="multiply" unicode="&#xd7;" 
d="M219 500q0 15 17 32l268 269l-268 270q-17 17 -17 31q0 10 10 20l58 58q10 10 22 10q17 0 31 -14l268 -271l271 271q16 16 32 16q11 0 21 -10l57 -58q10 -10 10 -20q0 -17 -16 -33l-270 -270l270 -271q16 -16 16 -32q0 -11 -10 -21l-57 -57q-10 -10 -21 -10q-16 0 -32 16
l-271 270l-268 -268q-16 -16 -33 -16q-10 0 -20 10l-58 57q-10 10 -10 21z" />
    <glyph glyph-name="Oslash" unicode="&#xd8;" horiz-adv-x="1351" 
d="M57 8q0 8 6 17l148 204q-88 149 -88 400v264q0 165 41 293q38 118 117 200q71 74 174 113q98 37 223 37q237 0 377 -131l59 84q26 39 53 39h107q10 0 16 -6t6 -17q0 -7 -6 -16l-145 -201q86 -154 86 -395v-264q0 -163 -41 -291q-40 -125 -115 -203q-70 -72 -174 -112
q-98 -37 -223 -37q-234 0 -375 129l-63 -90q-26 -39 -52 -39h-108q-11 0 -17 6t-6 16zM311 629q0 -116 27 -221l608 847q-91 113 -268 113q-367 0 -367 -475v-264zM410 262q88 -108 268 -108q177 0 270 112q94 113 94 363v264q0 129 -24 217z" />
    <glyph glyph-name="Ugrave" unicode="&#xd9;" horiz-adv-x="1353" 
d="M154 553v930q0 16 12 28q11 11 27 11h110q16 0 27 -11q12 -12 12 -28v-930q0 -206 76 -307t260 -101t260 101t76 307v930q0 18 10 28q11 11 29 11h110q16 0 27 -11q12 -12 12 -28v-930q0 -285 -135 -426t-389 -141t-389 141t-135 426zM381 1931q0 15 22 15h136
q15 0 26 -7q11 -8 25 -24l198 -254q9 -9 9 -21q0 -14 -19 -14h-110h-11q-1 0 -4 1t-4 1l-6 6l-6 6l-8 9l-8 8l-232 258q-8 8 -8 16z" />
    <glyph glyph-name="Uacute" unicode="&#xda;" horiz-adv-x="1353" 
d="M154 553v930q0 16 12 28q11 11 27 11h110q16 0 27 -11q12 -12 12 -28v-930q0 -206 76 -307t260 -101t260 101t76 307v930q0 18 10 28q11 11 29 11h110q16 0 27 -11q12 -12 12 -28v-930q0 -285 -135 -426t-389 -141t-389 141t-135 426zM565 1640q0 13 8 21l201 254
q4 5 17 18q7 7 12 9q12 4 20 4h135q23 0 23 -15q0 -8 -8 -16l-232 -258q-4 -4 -6 -8q-1 -2 -5 -5l-3 -2l-4 -6q-4 -4 -6 -4q-1 0 -3 -2t-3 -2t-4.5 -1t-4.5 -1h-8h-110q-19 0 -19 14z" />
    <glyph glyph-name="Ucircumflex" unicode="&#xdb;" horiz-adv-x="1353" 
d="M154 553v930q0 16 12 28q11 11 27 11h110q16 0 27 -11q12 -12 12 -28v-930q0 -206 76 -307t260 -101t260 101t76 307v930q0 18 10 28q11 11 29 11h110q16 0 27 -11q12 -12 12 -28v-930q0 -285 -135 -426t-389 -141t-389 141t-135 426zM330 1640q0 13 8 21l197 254
q8 10 16 18q7 7 12 9q12 4 21 4h174q16 0 26 -7q11 -8 25 -24l195 -254q8 -8 8 -21q0 -14 -19 -14h-106h-10q-1 0 -4.5 1t-4.5 1l-6 6l-6 6l-8 9l-8 8l-168 198l-170 -198q-4 -4 -6 -8l-7 -7l-6 -6q-4 -4 -6 -4q-1 0 -3 -2t-3 -2t-3 -1t-3 -1h-10h-107q-18 0 -18 14z" />
    <glyph glyph-name="Udieresis" unicode="&#xdc;" horiz-adv-x="1353" 
d="M154 553v930q0 16 12 28q11 11 27 11h110q16 0 27 -11q12 -12 12 -28v-930q0 -206 76 -307t260 -101t260 101t76 307v930q0 18 10 28q11 11 29 11h110q16 0 27 -11q12 -12 12 -28v-930q0 -285 -135 -426t-389 -141t-389 141t-135 426zM414 1698v166q0 16 12 28
q13 13 29 13h80q15 0 28 -13q12 -12 12 -28v-166q0 -17 -12 -29q-10 -10 -28 -10h-80q-19 0 -29 10q-12 12 -12 29zM772 1698v166q0 16 12 28q13 13 29 13h80q16 0 29 -13q12 -12 12 -28v-166q0 -17 -12 -29q-10 -10 -29 -10h-80q-19 0 -29 10q-12 12 -12 29z" />
    <glyph glyph-name="Yacute" unicode="&#xdd;" horiz-adv-x="1191" 
d="M72 1493q0 10 10 20q9 9 24 9h125q9 0 21 -9q10 -7 16 -20l283 -664q21 -53 47 -53q13 0 23 10q5 5 24 43l285 664q13 29 35 29h125q15 0 24 -9q10 -10 10 -20q0 -11 -6 -23l-317 -712q-49 -108 -111 -135v-582q0 -19 -10 -29q-12 -12 -27 -12h-112q-15 0 -27 12
q-10 10 -10 29v582q-56 19 -111 135l-315 712q-6 12 -6 23zM481 1640q0 13 8 21l201 254q4 5 17 18q7 7 12 9q12 4 20 4h135q23 0 23 -15q0 -8 -8 -16l-232 -258q-4 -4 -6 -8q-1 -2 -5 -5l-3 -2l-4 -6q-4 -4 -6 -4q-1 0 -3 -2t-3 -2t-4.5 -1t-4.5 -1h-8h-110q-19 0 -19 14z
" />
    <glyph glyph-name="Thorn" unicode="&#xde;" horiz-adv-x="1212" 
d="M160 41v1442q0 16 10 26q13 13 27 13h112q15 0 25 -13t10 -26v-142q54 2 103 3.5t71 2.5t25 1q127 0 233 -25q109 -26 182 -74q76 -50 121 -139q43 -85 43 -209v-29q0 -462 -575 -462q-117 0 -203 6v-375q0 -16 -10 -29q-9 -12 -23 -12h-114q-15 0 -27 12q-10 10 -10 29z
M344 575q141 -6 203 -6q201 0 295 70t94 233v29q0 153 -96 219q-97 66 -293 66q-141 0 -203 -4v-607z" />
    <glyph glyph-name="germandbls" unicode="&#xdf;" horiz-adv-x="1187" 
d="M133 43v1010q0 248 123 374q122 125 342 125q207 0 328 -100t121 -305v-25q0 -104 -62 -190q-60 -83 -154 -125q112 -41 179 -129q69 -90 69 -209v-29q0 -122 -39 -207q-42 -92 -108 -143q-70 -54 -154 -78q-93 -26 -184 -26q-36 0 -98 6q-17 3 -29 12t-12 27v84
q0 22 22 22q3 0 18.5 -1t28.5 -1h41q77 0 135 15q64 16 105 47q45 34 69 94q23 59 23 149v29q0 117 -82 190q-81 72 -235 72h-76q-17 0 -29 12t-12 29v59q0 17 12 29t29 12h76q143 0 215 72q71 71 71 178v25q0 117 -65 182q-66 66 -203 66q-143 0 -213 -82t-70 -260v-1010
q0 -18 -10 -31q-9 -12 -26 -12h-109q-18 0 -27 12q-10 13 -10 31z" />
    <glyph glyph-name="agrave" unicode="&#xe0;" horiz-adv-x="1060" 
d="M98 317v25q0 173 113 252q115 80 381 80h151v82q0 128 -49 180q-48 51 -170 51q-139 0 -313 -16h-10q-37 0 -37 33v71q0 33 43 39q164 27 317 27q208 0 303 -99q97 -102 97 -286v-715q0 -16 -13 -29q-12 -12 -28 -12h-95q-16 0 -28 12t-12 29v45q-169 -100 -316 -100
q-65 0 -127 16q-51 13 -104 53q-50 38 -76 103q-27 68 -27 159zM248 1581q0 14 22 14h136q19 0 28 -6q7 -5 23 -24l198 -254q9 -9 9 -21q0 -14 -19 -14h-110q-15 0 -21 4t-10 8q-1 1 -3 3.5t-6 7t-8 8.5l-231 258q-8 8 -8 16zM279 319q0 -104 47 -145t141 -41q127 0 276 82
v330h-151q-181 0 -248 -45q-65 -44 -65 -156v-25z" />
    <glyph glyph-name="aacute" unicode="&#xe1;" horiz-adv-x="1060" 
d="M98 317v25q0 173 113 252q115 80 381 80h151v82q0 128 -49 180q-48 51 -170 51q-139 0 -313 -16h-10q-37 0 -37 33v71q0 33 43 39q164 27 317 27q208 0 303 -99q97 -102 97 -286v-715q0 -16 -13 -29q-12 -12 -28 -12h-95q-16 0 -28 12t-12 29v45q-169 -100 -316 -100
q-65 0 -127 16q-51 13 -104 53q-50 38 -76 103q-27 68 -27 159zM279 319q0 -104 47 -145t141 -41q127 0 276 82v330h-151q-181 0 -248 -45q-65 -44 -65 -156v-25zM428 1290q0 13 8 21l201 254q17 21 22 24q9 6 27 6h135q23 0 23 -14q0 -8 -8 -16l-232 -258q-3 -3 -6 -9
l-6 -6l-6 -6q-4 -4 -6 -4q-1 0 -3.5 -2t-3.5 -2t-4 -1t-4 -1h-8h-111q-18 0 -18 14z" />
    <glyph glyph-name="acircumflex" unicode="&#xe2;" horiz-adv-x="1060" 
d="M98 317v25q0 173 113 252q115 80 381 80h151v82q0 128 -49 180q-48 51 -170 51q-139 0 -313 -16h-10q-37 0 -37 33v71q0 33 43 39q164 27 317 27q208 0 303 -99q97 -102 97 -286v-715q0 -16 -13 -29q-12 -12 -28 -12h-95q-16 0 -28 12t-12 29v45q-169 -100 -316 -100
q-65 0 -127 16q-51 13 -104 53q-50 38 -76 103q-27 68 -27 159zM188 1290q0 12 9 21l196 254q16 19 23 24q9 6 26 6h174q18 0 27 -6q11 -7 25 -24l194 -254q8 -8 8 -21q0 -14 -18 -14h-107q-2 0 -5.5 1t-4.5 1t-4 1t-4 1q-4 0 -8 4l-6 6q-2 4 -6 8l-9 9l-168 198l-170 -198
q-3 -3 -6 -9q-1 -2 -4 -4l-4 -2l-4 -6q-4 -4 -6 -4q-1 0 -3 -2t-3 -2t-4 -1t-4 -1h-9h-106q-19 0 -19 14zM279 319q0 -104 47 -145t141 -41q127 0 276 82v330h-151q-181 0 -248 -45q-65 -44 -65 -156v-25z" />
    <glyph glyph-name="atilde" unicode="&#xe3;" horiz-adv-x="1060" 
d="M98 317v25q0 173 113 252q115 80 381 80h151v82q0 128 -49 180q-48 51 -170 51q-139 0 -313 -16h-10q-37 0 -37 33v71q0 33 43 39q164 27 317 27q208 0 303 -99q97 -102 97 -286v-715q0 -16 -13 -29q-12 -12 -28 -12h-95q-16 0 -28 12t-12 29v45q-169 -100 -316 -100
q-65 0 -127 16q-51 13 -104 53q-50 38 -76 103q-27 68 -27 159zM186 1333v43q0 108 52 166q51 57 143 57q59 0 123 -49l145 -114q14 -11 37 -21q19 -8 35 -8q30 0 47 20q14 17 14 70v47q0 17 11 25q13 10 24 10h64q12 0 22 -10t10 -25v-47q0 -111 -45 -162q-47 -53 -147 -53
q-76 0 -131 43l-125 100q-42 33 -51 37q-20 8 -33 8q-33 0 -49 -22q-15 -21 -15 -72v-43q0 -14 -10 -24q-11 -11 -24 -11h-64q-11 0 -22 11t-11 24zM279 319q0 -104 47 -145t141 -41q127 0 276 82v330h-151q-181 0 -248 -45q-65 -44 -65 -156v-25z" />
    <glyph glyph-name="adieresis" unicode="&#xe4;" horiz-adv-x="1060" 
d="M98 317v25q0 173 113 252q115 80 381 80h151v82q0 128 -49 180q-48 51 -170 51q-139 0 -313 -16h-10q-37 0 -37 33v71q0 33 43 39q164 27 317 27q208 0 303 -99q97 -102 97 -286v-715q0 -16 -13 -29q-12 -12 -28 -12h-95q-16 0 -28 12t-12 29v45q-169 -100 -316 -100
q-65 0 -127 16q-51 13 -104 53q-50 38 -76 103q-27 68 -27 159zM274 1352v166q0 15 13 28t28 13h80q16 0 29 -13q12 -12 12 -28v-166q0 -17 -12 -29q-10 -10 -29 -10h-80q-18 0 -28 10q-13 13 -13 29zM279 319q0 -104 47 -145t141 -41q127 0 276 82v330h-151
q-181 0 -248 -45q-65 -44 -65 -156v-25zM633 1352v166q0 16 12 28q13 13 29 13h80q15 0 28 -13t13 -28v-166q0 -16 -13 -29q-10 -10 -28 -10h-80q-19 0 -29 10q-12 12 -12 29z" />
    <glyph glyph-name="aring" unicode="&#xe5;" horiz-adv-x="1060" 
d="M98 317v25q0 173 113 252q115 80 381 80h151v82q0 128 -49 180q-48 51 -170 51q-139 0 -313 -16h-10q-37 0 -37 33v71q0 33 43 39q164 27 317 27q208 0 303 -99q97 -102 97 -286v-715q0 -16 -13 -29q-12 -12 -28 -12h-95q-16 0 -28 12t-12 29v45q-169 -100 -316 -100
q-65 0 -127 16q-51 13 -104 53q-50 38 -76 103q-27 68 -27 159zM279 319q0 -104 47 -145t141 -41q127 0 276 82v330h-151q-181 0 -248 -45q-65 -44 -65 -156v-25zM317 1440q0 85 62 147t147 62q84 0 146 -62q61 -61 61 -147q0 -85 -61 -146t-146 -61q-86 0 -147 61
q-62 62 -62 146zM420 1442q0 -45 31 -76q33 -33 75 -33q43 0 76 33t33 76t-33 76q-30 30 -76 30q-45 0 -75 -30q-31 -31 -31 -76z" />
    <glyph glyph-name="ae" unicode="&#xe6;" horiz-adv-x="1744" 
d="M98 324v18q0 173 113 252q115 80 381 80h153v82q0 126 -51 180q-48 51 -170 51q-139 0 -313 -16h-4h-6q-37 0 -37 33v71q0 33 43 39q164 27 317 27q246 0 340 -144q123 144 334 144q219 0 332 -137q115 -139 115 -367v-86q0 -18 -11 -33q-9 -12 -28 -12h-682v-66
q0 -156 73 -229q74 -74 226 -74q142 0 350 29h4h6q33 0 33 -29v-69q0 -22 -8 -33q-9 -12 -33 -15q-170 -34 -363 -34q-127 0 -206 26q-85 28 -148 94q-70 -61 -166 -90q-99 -30 -203 -30q-72 0 -147 20q-74 20 -125 57q-60 44 -88 107q-31 70 -31 154zM281 324
q0 -101 65 -148t168 -47q146 0 231 64v350h-153q-124 0 -191 -21q-72 -22 -94 -63q-26 -47 -26 -117v-18zM924 643h542v10q0 334 -268 334q-130 0 -203 -88q-71 -86 -71 -246v-10z" />
    <glyph glyph-name="ccedilla" unicode="&#xe7;" horiz-adv-x="923" 
d="M102 483v160q0 227 115 363q114 135 322 135q115 0 256 -23q21 -3 32 -14q9 -9 9 -31v-74q0 -11 -11 -22q-8 -8 -24 -8h-8q-118 14 -254 14q-256 0 -256 -340v-160q0 -340 256 -340q119 0 254 15h8q16 0 24 -8q11 -11 11 -23v-74q0 -21 -9 -30q-13 -13 -32 -15
q-132 -22 -256 -22q-208 0 -322 135q-115 136 -115 362zM244 -371q0 13 8 21l199 254q15 18 24 24t27 6h135q22 0 22 -14q0 -8 -8 -16l-231 -258q-4 -4 -6 -8q-1 -2 -6 -7l-7 -6q-4 -4 -6 -4q-1 0 -3 -2t-3 -2t-3 -1t-3 -1h-10h-111q-18 0 -18 14z" />
    <glyph glyph-name="egrave" unicode="&#xe8;" horiz-adv-x="1112" 
d="M102 477v185q0 224 119 352q118 127 336 127q221 0 336 -127t115 -352v-111q0 -18 -11 -33q-9 -12 -28 -12h-686v-29q0 -181 69 -256q72 -78 215 -78q197 0 365 23h10q11 0 23 -8q10 -7 10 -21v-69q0 -22 -8 -33q-9 -12 -33 -15q-170 -34 -367 -34q-79 0 -139 14
q-75 18 -127 49q-64 39 -104 90q-47 60 -70 142q-25 89 -25 196zM283 643h542v19q0 168 -65 245q-64 76 -203 76q-274 0 -274 -321v-19zM317 1581q0 14 23 14h135q18 0 27 -6t24 -24l199 -254q8 -8 8 -21q0 -14 -18 -14h-111q-2 0 -5.5 1t-4.5 1t-4 1t-4 1q-4 0 -8 4l-5 6
l-8 8l-8 9l-231 258q-9 9 -9 16z" />
    <glyph glyph-name="eacute" unicode="&#xe9;" horiz-adv-x="1112" 
d="M102 477v185q0 224 119 352q118 127 336 127q221 0 336 -127t115 -352v-111q0 -18 -11 -33q-9 -12 -28 -12h-686v-29q0 -181 69 -256q72 -78 215 -78q197 0 365 23h10q11 0 23 -8q10 -7 10 -21v-69q0 -22 -8 -33q-9 -12 -33 -15q-170 -34 -367 -34q-79 0 -139 14
q-75 18 -127 49q-64 39 -104 90q-47 60 -70 142q-25 89 -25 196zM283 643h542v19q0 168 -65 245q-64 76 -203 76q-274 0 -274 -321v-19zM473 1290q0 13 8 21l201 254q16 19 23 24q9 6 26 6h135q23 0 23 -14q0 -8 -8 -16l-232 -258q-3 -3 -6 -9l-6 -6l-6 -6q-4 -4 -6 -4
q-1 0 -3.5 -2t-3.5 -2t-4 -1t-4 -1h-8h-110q-19 0 -19 14z" />
    <glyph glyph-name="ecircumflex" unicode="&#xea;" horiz-adv-x="1112" 
d="M102 477v185q0 224 119 352q118 127 336 127q221 0 336 -127t115 -352v-111q0 -18 -11 -33q-9 -12 -28 -12h-686v-29q0 -181 69 -256q72 -78 215 -78q197 0 365 23h10q11 0 23 -8q10 -7 10 -21v-69q0 -22 -8 -33q-9 -12 -33 -15q-170 -34 -367 -34q-79 0 -139 14
q-75 18 -127 49q-64 39 -104 90q-47 60 -70 142q-25 89 -25 196zM217 1290q0 13 8 21l197 254q18 21 22 24q9 6 27 6h174q18 0 27 -6t24 -24l195 -254q8 -8 8 -21q0 -14 -18 -14h-107q-2 0 -5.5 1t-4.5 1t-4 1t-4 1q-4 0 -8 4l-5 6l-8 8l-8 9l-168 198l-170 -198
q-3 -3 -6 -9l-6 -6l-6 -6q-4 -4 -6 -4q-1 0 -3.5 -2t-3.5 -2t-4 -1t-4 -1h-8h-106q-19 0 -19 14zM283 643h542v19q0 168 -65 245q-64 76 -203 76q-274 0 -274 -321v-19z" />
    <glyph glyph-name="edieresis" unicode="&#xeb;" horiz-adv-x="1112" 
d="M102 477v185q0 224 119 352q118 127 336 127q221 0 336 -127t115 -352v-111q0 -18 -11 -33q-9 -12 -28 -12h-686v-29q0 -181 69 -256q72 -78 215 -78q197 0 365 23h10q11 0 23 -8q10 -7 10 -21v-69q0 -22 -8 -33q-9 -12 -33 -15q-170 -34 -367 -34q-79 0 -139 14
q-75 18 -127 49q-64 39 -104 90q-47 60 -70 142q-25 89 -25 196zM283 643h542v19q0 168 -65 245q-64 76 -203 76q-274 0 -274 -321v-19zM305 1352v166q0 16 12 28q13 13 29 13h80q16 0 29 -13q12 -12 12 -28v-166q0 -17 -12 -29q-10 -10 -29 -10h-80q-19 0 -29 10
q-12 12 -12 29zM664 1352v166q0 14 14 28q13 13 27 13h79q14 0 27 -13q14 -14 14 -28v-166q0 -17 -12 -29q-10 -10 -29 -10h-79q-19 0 -29 10q-12 12 -12 29z" />
    <glyph glyph-name="igrave" unicode="&#xec;" horiz-adv-x="503" 
d="M-37 1581q0 14 23 14h135q20 0 29 -6q4 -3 22 -24l199 -254q8 -8 8 -21q0 -14 -19 -14h-110q-2 0 -5.5 1t-4.5 1t-4.5 1t-4.5 1q-2 0 -6 4l-6 6l-8 8l-8 9l-232 258q-8 8 -8 16zM162 41v1044q0 17 12 29t29 12h98q17 0 29 -12t12 -29v-1044q0 -17 -12 -29t-29 -12h-98
q-17 0 -29 12t-12 29z" />
    <glyph glyph-name="iacute" unicode="&#xed;" horiz-adv-x="503" 
d="M139 1290q0 13 8 21l201 254q16 19 23 24q9 6 26 6h135q23 0 23 -14q0 -8 -8 -16l-232 -258q-3 -3 -6 -9q-1 -2 -4 -4t-4 -2l-4 -6q-4 -4 -6 -4q-1 0 -3 -2t-3 -2t-4.5 -1t-4.5 -1h-8h-110q-19 0 -19 14zM162 41v1044q0 17 12 29t29 12h98q17 0 29 -12t12 -29v-1044
q0 -17 -12 -29t-29 -12h-98q-17 0 -29 12t-12 29z" />
    <glyph glyph-name="icircumflex" unicode="&#xee;" horiz-adv-x="503" 
d="M-90 1290q0 13 8 21l197 254q17 21 22 24q9 6 27 6h174q18 0 27 -6t24 -24l195 -254q8 -8 8 -21q0 -14 -19 -14h-106q-2 0 -5.5 1t-4.5 1t-4 1t-4 1q-3 0 -7 4l-6 6l-8 8l-8 9l-168 198l-170 -198q-3 -3 -6 -9l-6 -6l-7 -6q-4 -4 -6 -4q-1 0 -3 -2t-3 -2t-4 -1t-4 -1h-8
h-107q-18 0 -18 14zM162 41v1044q0 17 12 29t29 12h98q17 0 29 -12t12 -29v-1044q0 -17 -12 -29t-29 -12h-98q-17 0 -29 12t-12 29z" />
    <glyph glyph-name="idieresis" unicode="&#xef;" horiz-adv-x="503" 
d="M-8 1352v166q0 16 12 28q13 13 29 13h80q15 0 28 -13t13 -28v-166q0 -16 -13 -29q-10 -10 -28 -10h-80q-19 0 -29 10q-12 12 -12 29zM162 41v1044q0 17 12 29t29 12h98q17 0 29 -12t12 -29v-1044q0 -17 -12 -29t-29 -12h-98q-17 0 -29 12t-12 29zM350 1352v166
q0 16 12 28q13 13 29 13h80q16 0 29 -13q12 -12 12 -28v-166q0 -17 -12 -29q-10 -10 -29 -10h-80q-19 0 -29 10q-12 12 -12 29z" />
    <glyph glyph-name="eth" unicode="&#xf0;" horiz-adv-x="1114" 
d="M102 498v112q0 247 117 379q118 133 340 133q147 0 229 -73q-64 167 -301 280l-176 -135q-15 -12 -26 -12t-23 12l-35 39q-6 6 -6 14q0 17 21 35l125 96q-127 38 -162 45q-33 9 -33 31q0 8 2 10l25 70q6 22 28 22q13 0 17 -2q182 -46 254 -75l192 145q11 8 27 8
q14 0 24 -10l35 -37q8 -8 8 -16q0 -12 -20 -29l-150 -115q118 -68 195 -145t123 -178q45 -98 63 -217q19 -123 19 -275v-112q0 -248 -115 -381q-113 -131 -338 -131q-227 0 -344 135q-115 133 -115 377zM285 498q0 -178 65 -267q66 -90 211 -90q143 0 209 90q64 88 64 267
v112q0 175 -66 269q-63 90 -209 90t-209 -90q-65 -92 -65 -269v-112z" />
    <glyph glyph-name="ntilde" unicode="&#xf1;" horiz-adv-x="1138" 
d="M139 41v1044q0 18 11 29q12 12 28 12h103q19 0 28 -12q10 -13 10 -29v-38q90 51 162 71q81 23 164 23q356 0 356 -426v-674q0 -17 -12 -29t-28 -12h-99q-16 0 -28 12q-13 13 -13 29v674q0 152 -53 211t-172 59q-117 0 -277 -80v-864q0 -17 -12 -29t-28 -12h-101
q-14 0 -26 12q-13 13 -13 29zM215 1333v43q0 109 51 166t144 57q58 0 122 -49l146 -114q14 -11 37 -21q19 -8 35 -8q30 0 47 20q14 17 14 70v47q0 15 10 25t25 10h63q13 0 23 -10t10 -25v-47q0 -111 -45 -162q-47 -53 -147 -53q-77 0 -132 43l-124 100q-40 32 -52 37
q-20 8 -32 8q-34 0 -50 -22q-14 -20 -14 -72v-43q0 -14 -10 -24q-11 -11 -25 -11h-63q-12 0 -23 11q-10 10 -10 24z" />
    <glyph glyph-name="ograve" unicode="&#xf2;" horiz-adv-x="1114" 
d="M102 485v156q0 230 117 365t338 135q223 0 340 -135t117 -365v-156q0 -229 -117 -364t-340 -135q-221 0 -338 135t-117 364zM260 1581q0 14 23 14h135q19 0 28 -6q7 -5 23 -24l199 -254q8 -8 8 -21q0 -14 -19 -14h-110q-2 0 -5.5 1t-4.5 1t-4.5 1t-4.5 1q-2 0 -6 4l-6 6
l-8 8l-8 9l-232 258q-8 8 -8 16zM283 485q0 -164 67 -252q69 -90 207 -90q140 0 209 90q68 89 68 252v156q0 163 -68 252q-69 90 -209 90q-138 0 -207 -90q-67 -88 -67 -252v-156z" />
    <glyph glyph-name="oacute" unicode="&#xf3;" horiz-adv-x="1114" 
d="M102 485v156q0 230 117 365t338 135q223 0 340 -135t117 -365v-156q0 -229 -117 -364t-340 -135q-221 0 -338 135t-117 364zM283 485q0 -164 67 -252q69 -90 207 -90q140 0 209 90q68 89 68 252v156q0 163 -68 252q-69 90 -209 90q-138 0 -207 -90q-67 -88 -67 -252v-156
zM457 1290q0 13 8 21l201 254q18 21 22 24q9 6 27 6h135q22 0 22 -14q0 -8 -8 -16l-231 -258q-3 -3 -6 -9l-6 -6l-7 -6q-4 -4 -6 -4q-1 0 -3 -2t-3 -2t-3 -1t-3 -1h-10h-111q-18 0 -18 14z" />
    <glyph glyph-name="ocircumflex" unicode="&#xf4;" horiz-adv-x="1114" 
d="M102 485v156q0 230 117 365t338 135q223 0 340 -135t117 -365v-156q0 -229 -117 -364t-340 -135q-221 0 -338 135t-117 364zM219 1290q0 13 8 21l197 254q17 21 22 24q9 6 27 6h174q18 0 27 -6t24 -24l195 -254q8 -8 8 -21q0 -14 -18 -14h-107q-2 0 -5.5 1t-4.5 1t-4 1
t-4 1q-4 0 -8 4l-5 6l-8 8l-8 9l-168 198l-170 -198q-3 -3 -6 -9l-6 -6l-6 -6q-4 -4 -6 -4q-1 0 -3.5 -2t-3.5 -2t-4 -1t-4 -1h-8h-106q-19 0 -19 14zM283 485q0 -164 67 -252q69 -90 207 -90q140 0 209 90q68 89 68 252v156q0 163 -68 252q-69 90 -209 90q-138 0 -207 -90
q-67 -88 -67 -252v-156z" />
    <glyph glyph-name="otilde" unicode="&#xf5;" horiz-adv-x="1114" 
d="M102 485v156q0 230 117 365t338 135q223 0 340 -135t117 -365v-156q0 -229 -117 -364t-340 -135q-221 0 -338 135t-117 364zM207 1333v43q0 109 51 166t143 57q59 0 123 -49l146 -114q40 -29 71 -29q30 0 47 20q15 18 15 70v47q0 15 10 25t25 10h63q13 0 23 -10t10 -25
v-47q0 -111 -45 -162q-47 -53 -148 -53q-76 0 -131 43l-125 100q-42 33 -51 37q-20 8 -33 8q-33 0 -49 -22q-14 -20 -14 -72v-43q0 -14 -10 -24q-11 -11 -25 -11h-63q-12 0 -23 11q-10 10 -10 24zM283 485q0 -164 67 -252q69 -90 207 -90q140 0 209 90q68 89 68 252v156
q0 163 -68 252q-69 90 -209 90q-138 0 -207 -90q-67 -88 -67 -252v-156z" />
    <glyph glyph-name="odieresis" unicode="&#xf6;" horiz-adv-x="1114" 
d="M102 485v156q0 230 117 365t338 135q223 0 340 -135t117 -365v-156q0 -229 -117 -364t-340 -135q-221 0 -338 135t-117 364zM283 485q0 -164 67 -252q69 -90 207 -90q140 0 209 90q68 89 68 252v156q0 163 -68 252q-69 90 -209 90q-138 0 -207 -90q-67 -88 -67 -252v-156
zM295 1352v166q0 16 12 28q13 13 29 13h80q15 0 28 -13t13 -28v-166q0 -16 -13 -29q-10 -10 -28 -10h-80q-19 0 -29 10q-12 12 -12 29zM653 1352v166q0 15 13 28t28 13h80q16 0 29 -13q12 -12 12 -28v-166q0 -17 -12 -29q-10 -10 -29 -10h-80q-18 0 -28 10q-13 13 -13 29z
" />
    <glyph glyph-name="divide" unicode="&#xf7;" 
d="M184 760v82q0 32 41 32h789q41 0 41 -32v-82q0 -33 -41 -33h-789q-41 0 -41 33zM528 332v182q0 14 13 27q12 12 28 12h99q14 0 26 -12q13 -13 13 -27v-182q0 -18 -11 -29q-10 -10 -28 -10h-99q-18 0 -28 10q-13 13 -13 29zM528 1079v181q0 13 13 26q12 12 28 12h99
q14 0 26 -12q13 -13 13 -26v-181q0 -15 -13 -28t-26 -13h-99q-15 0 -28 13t-13 28z" />
    <glyph glyph-name="oslash" unicode="&#xf8;" horiz-adv-x="1114" 
d="M33 -55q0 14 8 22l145 197q-84 131 -84 321v156q0 230 117 365t338 135q172 0 287 -86l86 119q14 20 33 20h102q16 0 16 -16q0 -15 -8 -23l-143 -192q84 -131 84 -322v-156q0 -229 -117 -364t-340 -135q-170 0 -285 86l-90 -123q-15 -21 -32 -21h-101q-16 0 -16 17z
M283 485q0 -97 20 -161l438 596q-66 63 -184 63q-274 0 -274 -342v-156zM373 207q67 -64 184 -64q140 0 209 90q68 89 68 252v156q0 76 -23 160z" />
    <glyph glyph-name="ugrave" unicode="&#xf9;" horiz-adv-x="1138" 
d="M139 412v673q0 16 13 29q12 12 28 12h99q16 0 28 -12t12 -29v-673q0 -148 54 -211q51 -60 172 -60q116 0 276 80v864q0 16 13 29q12 12 28 12h101q14 0 26 -12t12 -29v-1044q0 -16 -10 -29q-9 -12 -28 -12h-103q-17 0 -29 12q-10 10 -10 29v39q-94 -53 -162 -72
q-77 -22 -163 -22q-357 0 -357 426zM272 1581q0 14 23 14h135q18 0 27 -6t24 -24l199 -254q8 -8 8 -21q0 -14 -18 -14h-111q-2 0 -5.5 1t-4.5 1t-4 1t-4 1q-5 0 -9 4l-4 6l-8 8l-8 9l-231 258q-9 9 -9 16z" />
    <glyph glyph-name="uacute" unicode="&#xfa;" horiz-adv-x="1138" 
d="M139 412v673q0 16 13 29q12 12 28 12h99q16 0 28 -12t12 -29v-673q0 -148 54 -211q51 -60 172 -60q116 0 276 80v864q0 16 13 29q12 12 28 12h101q14 0 26 -12t12 -29v-1044q0 -16 -10 -29q-9 -12 -28 -12h-103q-17 0 -29 12q-10 10 -10 29v39q-94 -53 -162 -72
q-77 -22 -163 -22q-357 0 -357 426zM473 1290q0 13 8 21l201 254q16 19 23 24q9 6 26 6h135q23 0 23 -14q0 -8 -8 -16l-232 -258q-3 -3 -6 -9l-6 -6l-6 -6q-4 -4 -6 -4q-1 0 -3.5 -2t-3.5 -2t-4 -1t-4 -1h-8h-110q-19 0 -19 14z" />
    <glyph glyph-name="ucircumflex" unicode="&#xfb;" horiz-adv-x="1138" 
d="M139 412v673q0 16 13 29q12 12 28 12h99q16 0 28 -12t12 -29v-673q0 -148 54 -211q51 -60 172 -60q116 0 276 80v864q0 16 13 29q12 12 28 12h101q14 0 26 -12t12 -29v-1044q0 -16 -10 -29q-9 -12 -28 -12h-103q-17 0 -29 12q-10 10 -10 29v39q-94 -53 -162 -72
q-77 -22 -163 -22q-357 0 -357 426zM231 1290q0 12 9 21l196 254q16 19 23 24q9 6 26 6h174q18 0 27 -6q11 -7 25 -24l194 -254q8 -8 8 -21q0 -14 -18 -14h-107q-2 0 -5.5 1t-4.5 1t-4 1t-4 1q-4 0 -8 4l-6 6q-2 4 -6 8l-9 9l-168 198l-170 -198q-3 -3 -6 -9q-1 -2 -4 -4
t-4 -2l-4 -6q-4 -4 -6 -4q-1 0 -3 -2t-3 -2t-4 -1t-4 -1h-9h-106q-19 0 -19 14z" />
    <glyph glyph-name="udieresis" unicode="&#xfc;" horiz-adv-x="1138" 
d="M139 412v673q0 16 13 29q12 12 28 12h99q16 0 28 -12t12 -29v-673q0 -148 54 -211q51 -60 172 -60q116 0 276 80v864q0 16 13 29q12 12 28 12h101q14 0 26 -12t12 -29v-1044q0 -16 -10 -29q-9 -12 -28 -12h-103q-17 0 -29 12q-10 10 -10 29v39q-94 -53 -162 -72
q-77 -22 -163 -22q-357 0 -357 426zM309 1352v166q0 15 13 28t28 13h80q16 0 29 -13q12 -12 12 -28v-166q0 -17 -12 -29q-10 -10 -29 -10h-80q-18 0 -28 10q-13 13 -13 29zM668 1352v166q0 14 14 28q13 13 27 13h79q14 0 27 -13q14 -14 14 -28v-166q0 -17 -12 -29
q-10 -10 -29 -10h-79q-19 0 -29 10q-12 12 -12 29z" />
    <glyph glyph-name="yacute" unicode="&#xfd;" horiz-adv-x="1091" 
d="M80 1092q0 34 37 34h112q13 0 23 -10q9 -9 12 -22l242 -889q6 -27 16 -37q8 -8 23 -8h33l249 936q3 11 15 20q13 10 24 10h115q15 0 25 -10q8 -8 8 -24q0 -13 -2 -15l-338 -1179q-36 -121 -74 -179q-43 -65 -111 -94q-73 -31 -190 -31q-85 0 -172 19q-43 9 -43 33v75
q0 33 39 33h6q135 -12 182 -12q91 0 135 35t68 139l21 84h-29q-21 0 -45 4q-8 1 -39 19q-17 10 -37 43q-20 34 -31 75l-272 936q-2 2 -2 15zM498 1290q0 13 8 21l201 254q17 21 22 24q9 6 27 6h135q22 0 22 -14q0 -8 -8 -16l-231 -258q-3 -3 -6 -9l-6 -6l-7 -6q-4 -4 -6 -4
q-1 0 -3 -2t-3 -2t-3 -1t-3 -1h-10h-111q-18 0 -18 14z" />
    <glyph glyph-name="thorn" unicode="&#xfe;" horiz-adv-x="1105" 
d="M139 -362v1861q0 16 13 29q12 12 28 12h99q16 0 28 -12t12 -29v-379q141 21 240 21q227 0 336 -133q111 -135 111 -373v-148q0 -244 -113 -372q-114 -129 -334 -129q-108 0 -240 22v-370q0 -14 -10 -27q-9 -12 -28 -12h-105q-14 0 -26 12q-11 11 -11 27zM319 158
q120 -21 240 -21q144 0 205 88t61 262v148q0 171 -61 262q-62 92 -205 92q-131 0 -240 -20v-811z" />
    <glyph glyph-name="ydieresis" unicode="&#xff;" horiz-adv-x="1091" 
d="M80 1092q0 34 37 34h112q13 0 23 -10q9 -9 12 -22l242 -889q6 -27 16 -37q8 -8 23 -8h33l249 936q3 11 15 20q13 10 24 10h115q15 0 25 -10q8 -8 8 -24q0 -13 -2 -15l-338 -1179q-36 -121 -74 -179q-43 -65 -111 -94q-73 -31 -190 -31q-85 0 -172 19q-43 9 -43 33v75
q0 33 39 33h6q135 -12 182 -12q91 0 135 35t68 139l21 84h-29q-21 0 -45 4q-8 1 -39 19q-17 10 -37 43q-20 34 -31 75l-272 936q-2 2 -2 15zM307 1352v166q0 16 12 28q13 13 29 13h80q16 0 29 -13q12 -12 12 -28v-166q0 -17 -12 -29q-10 -10 -29 -10h-80q-19 0 -29 10
q-12 12 -12 29zM666 1352v166q0 14 14 28q13 13 27 13h79q14 0 27 -13q14 -14 14 -28v-166q0 -17 -12 -29q-10 -10 -29 -10h-79q-19 0 -29 10q-12 12 -12 29z" />
    <glyph glyph-name="OE" unicode="&#x152;" horiz-adv-x="2011" 
d="M123 629v264q0 165 41 293q38 118 117 200q71 74 174 113q98 37 223 37q269 0 412 -168q88 168 391 168q279 0 399 -18q7 0 14 -11t7 -18v-96q0 -12 -7 -19q-6 -6 -16 -6h-395q-104 0 -162 -22q-54 -20 -72 -64t-18 -127v-285h629q16 0 28 -12q13 -13 13 -29v-77
q0 -16 -13 -29q-12 -12 -28 -12h-629v-346q0 -83 18 -127t72 -64q58 -22 162 -22h395q9 0 16 -7t7 -18v-96q0 -9 -7 -19t-14 -10q-120 -18 -399 -18q-302 0 -391 170q-143 -168 -412 -168q-125 0 -223 37q-104 40 -174 112q-78 81 -117 203q-41 128 -41 291zM311 629
q0 -475 367 -475q366 0 366 473v274q0 101 -18 180q-20 90 -55 148q-37 62 -115 102q-73 37 -178 37q-367 0 -367 -475v-264z" />
    <glyph glyph-name="oe" unicode="&#x153;" horiz-adv-x="1839" 
d="M102 485v156q0 230 117 365t338 135q248 0 367 -168q116 168 364 168q221 0 336 -127t115 -352v-111q0 -20 -10 -33q-9 -12 -29 -12h-686v-21q0 -85 12 -143q11 -55 43 -104q30 -47 88 -72q53 -23 141 -23q197 0 365 23h10q11 0 23 -8q10 -7 10 -21v-69q0 -22 -8 -33
q-9 -12 -33 -15q-170 -34 -367 -34q-260 0 -376 168q-119 -168 -365 -168q-221 0 -338 135t-117 364zM283 485q0 -164 67 -252q69 -90 207 -90q140 0 209 90q68 89 68 252v156q0 163 -68 252q-69 90 -209 90q-138 0 -207 -90q-67 -88 -67 -252v-156zM1014 643h542v19
q0 168 -65 245q-64 76 -203 76q-274 0 -274 -321v-19z" />
    <glyph glyph-name="Ydieresis" unicode="&#x178;" horiz-adv-x="1191" 
d="M72 1493q0 10 10 20q9 9 24 9h125q9 0 21 -9q10 -7 16 -20l283 -664q21 -53 47 -53q13 0 23 10q5 5 24 43l285 664q13 29 35 29h125q15 0 24 -9q10 -10 10 -20q0 -11 -6 -23l-317 -712q-49 -108 -111 -135v-582q0 -19 -10 -29q-12 -12 -27 -12h-112q-15 0 -27 12
q-10 10 -10 29v582q-56 19 -111 135l-315 712q-6 12 -6 23zM336 1681v166q0 17 12 29t29 12h80q16 0 28 -12q13 -13 13 -29v-166q0 -15 -13 -28q-11 -11 -28 -11h-80q-18 0 -29 11q-12 12 -12 28zM694 1681v166q0 16 13 29q12 12 28 12h80q17 0 29 -12t12 -29v-166
q0 -16 -12 -28q-11 -11 -29 -11h-80q-17 0 -28 11q-13 13 -13 28z" />
    <glyph glyph-name="circumflex" unicode="&#x2c6;" horiz-adv-x="761" 
d="M41 1290q0 13 8 21l197 254q18 21 22 24q9 6 27 6h174q18 0 27 -6t24 -24l195 -254q8 -8 8 -21q0 -14 -18 -14h-107q-2 0 -5.5 1t-4.5 1t-4 1t-4 1q-3 0 -7 4l-6 6l-8 8l-8 9l-168 198l-170 -198q-3 -3 -6 -9l-6 -6l-6 -6q-4 -4 -7 -4q-1 0 -3 -2t-3 -2t-4 -1t-4 -1h-8
h-107q-18 0 -18 14z" />
    <glyph glyph-name="tilde" unicode="&#x2dc;" horiz-adv-x="1007" 
d="M131 1333v43q0 109 51 166t144 57q59 0 123 -49l145 -114q14 -11 37 -21q19 -8 35 -8q30 0 47 20q14 17 14 70v47q0 15 10 25t25 10h63q13 0 23 -10t10 -25v-47q0 -111 -45 -162q-47 -53 -147 -53q-76 0 -131 43l-125 100q-41 32 -52 37q-20 8 -32 8q-34 0 -50 -22
q-14 -20 -14 -72v-43q0 -14 -10 -24q-11 -11 -25 -11h-63q-12 0 -23 11q-10 10 -10 24z" />
    <glyph glyph-name="uni2000" unicode="&#x2000;" horiz-adv-x="1001" 
 />
    <glyph glyph-name="uni2001" unicode="&#x2001;" horiz-adv-x="2004" 
 />
    <glyph glyph-name="uni2002" unicode="&#x2002;" horiz-adv-x="1001" 
 />
    <glyph glyph-name="uni2003" unicode="&#x2003;" horiz-adv-x="2004" 
 />
    <glyph glyph-name="uni2004" unicode="&#x2004;" horiz-adv-x="667" 
 />
    <glyph glyph-name="uni2005" unicode="&#x2005;" horiz-adv-x="499" 
 />
    <glyph glyph-name="uni2006" unicode="&#x2006;" horiz-adv-x="333" 
 />
    <glyph glyph-name="uni2007" unicode="&#x2007;" horiz-adv-x="333" 
 />
    <glyph glyph-name="uni2008" unicode="&#x2008;" horiz-adv-x="249" 
 />
    <glyph glyph-name="uni2009" unicode="&#x2009;" horiz-adv-x="399" 
 />
    <glyph glyph-name="uni200A" unicode="&#x200a;" horiz-adv-x="110" 
 />
    <glyph glyph-name="uni2010" unicode="&#x2010;" horiz-adv-x="679" 
d="M98 559v80q0 16 11 27q10 10 28 10h408q15 0 28 -10q11 -8 11 -27v-80q0 -16 -11 -24q-15 -11 -28 -11h-408q-39 0 -39 35z" />
    <glyph glyph-name="uni2011" unicode="&#x2011;" horiz-adv-x="679" 
d="M98 559v80q0 16 11 27q10 10 28 10h408q15 0 28 -10q11 -8 11 -27v-80q0 -16 -11 -24q-15 -11 -28 -11h-408q-39 0 -39 35z" />
    <glyph glyph-name="figuredash" unicode="&#x2012;" horiz-adv-x="679" 
d="M98 559v80q0 16 11 27q10 10 28 10h408q15 0 28 -10q11 -8 11 -27v-80q0 -16 -11 -24q-15 -11 -28 -11h-408q-39 0 -39 35z" />
    <glyph glyph-name="endash" unicode="&#x2013;" horiz-adv-x="632" 
d="M-31 539v79q0 14 11 25q12 12 28 12h619q16 0 28 -12q11 -11 11 -25v-79q0 -17 -11 -25q-13 -10 -28 -10h-619q-15 0 -28 10q-11 8 -11 25z" />
    <glyph glyph-name="emdash" unicode="&#x2014;" horiz-adv-x="1226" 
d="M-31 539v79q0 14 11 25q12 12 28 12h1213q16 0 28 -12q11 -11 11 -25v-79q0 -17 -11 -25q-13 -10 -28 -10h-1213q-15 0 -28 10q-11 8 -11 25z" />
    <glyph glyph-name="quoteleft" unicode="&#x2018;" horiz-adv-x="378" 
d="M59 1098q0 12 2 16l125 387q6 22 15 31q8 8 24 8h78q19 0 19 -20q0 -10 -3 -19l-75 -387q-9 -39 -41 -39h-121q-23 0 -23 23z" />
    <glyph glyph-name="quoteright" unicode="&#x2019;" horiz-adv-x="378" 
d="M59 1096q0 14 2 18l76 387q9 39 41 39h121q23 0 23 -22q0 -8 -3 -17l-124 -387q-6 -22 -15 -31q-8 -8 -24 -8h-78q-19 0 -19 21z" />
    <glyph glyph-name="quotesinglbase" unicode="&#x201a;" horiz-adv-x="378" 
d="M41 -176q0 12 2 14l117 387q7 24 14 31q8 8 27 8h118q27 0 27 -22q0 -1 -4 -17l-154 -387q-4 -10 -10 -22q-5 -11 -10 -13q-8 -4 -18 -4h-84q-25 0 -25 25z" />
    <glyph glyph-name="quotedblleft" unicode="&#x201c;" horiz-adv-x="686" 
d="M59 1098q0 12 2 16l125 387q6 22 15 31q8 8 24 8h78q19 0 19 -20q0 -10 -3 -19l-75 -387q-9 -39 -41 -39h-121q-23 0 -23 23zM367 1098q0 12 2 16l125 387q7 24 14 31q8 8 24 8h78q19 0 19 -20q0 -15 -2 -19l-76 -387q-9 -39 -41 -39h-121q-22 0 -22 23z" />
    <glyph glyph-name="quotedblright" unicode="&#x201d;" horiz-adv-x="686" 
d="M59 1096q0 14 2 18l76 387q9 39 41 39h121q23 0 23 -22q0 -8 -3 -17l-124 -387q-6 -22 -15 -31q-8 -8 -24 -8h-78q-19 0 -19 21zM367 1096q0 14 2 18l75 387q9 39 41 39h121q23 0 23 -22q0 -13 -2 -17l-125 -387q-6 -22 -15 -31q-8 -8 -24 -8h-78q-18 0 -18 21z" />
    <glyph glyph-name="quotedblbase" unicode="&#x201e;" horiz-adv-x="686" 
d="M41 -176q0 12 2 14l117 387q7 24 14 31q8 8 27 8h118q27 0 27 -22q0 -1 -4 -17l-154 -387q-4 -10 -10 -22q-5 -11 -10 -13q-8 -4 -18 -4h-84q-25 0 -25 25zM410 -176q0 12 2 14l116 387q6 22 15 31q8 8 26 8h119q27 0 27 -22q0 -1 -4 -17l-154 -387q-8 -20 -16 -31
q-5 -8 -23 -8h-84q-24 0 -24 25z" />
    <glyph glyph-name="bullet" unicode="&#x2022;" horiz-adv-x="854" 
d="M102 752q0 134 95 229q96 96 231 96t231 -96q95 -95 95 -229q0 -135 -95 -230q-96 -96 -231 -96t-231 96q-95 95 -95 230z" />
    <glyph glyph-name="ellipsis" unicode="&#x2026;" horiz-adv-x="1239" 
d="M119 39v192q0 15 12 27t29 12h98q15 0 27 -12t12 -27v-192q0 -17 -12 -29q-10 -10 -27 -10h-98q-19 0 -29 10q-12 12 -12 29zM532 39v192q0 14 13 27q12 12 26 12h99q16 0 28 -12q13 -13 13 -27v-192q0 -16 -13 -29q-10 -10 -28 -10h-99q-18 0 -28 10q-11 11 -11 29z
M944 39v192q0 15 12 27t29 12h98q15 0 27 -12t12 -27v-192q0 -17 -12 -29q-10 -10 -27 -10h-98q-19 0 -29 10q-12 12 -12 29z" />
    <glyph glyph-name="uni202F" unicode="&#x202f;" horiz-adv-x="399" 
 />
    <glyph glyph-name="guilsinglleft" unicode="&#x2039;" horiz-adv-x="722" 
d="M61 567q0 35 23 58l346 346q20 20 43 20h119q22 0 22 -18q0 -15 -12 -27l-364 -379l364 -379q12 -12 12 -26q0 -19 -22 -19h-119q-22 0 -43 21l-346 346q-23 23 -23 57z" />
    <glyph glyph-name="guilsinglright" unicode="&#x203a;" horiz-adv-x="722" 
d="M111 162q0 14 12 26l364 379l-364 379q-12 12 -12 27q0 18 22 18h119q23 0 43 -20l346 -346q23 -23 23 -58q0 -34 -23 -57l-346 -346q-21 -21 -43 -21h-119q-22 0 -22 19z" />
    <glyph glyph-name="uni205F" unicode="&#x205f;" horiz-adv-x="499" 
 />
    <glyph glyph-name="Euro" unicode="&#x20ac;" 
d="M106 584v57q0 16 13 29q12 12 28 12h66v166h-66q-16 0 -28 12q-13 13 -13 29v57q0 16 13 29q12 12 28 12h68q9 123 49 221q39 94 96 158q49 54 132 100q67 37 147 54q75 16 147 16q13 0 36 -1t34 -1q10 0 22 -1t26.5 -2.5t23.5 -2.5q40 -3 57 -6q4 -1 14 -3t22.5 -4
t25.5 -4q46 -6 51 -8q32 -3 32 -26v-105q0 -22 -24 -22h-6q-220 18 -312 18q-76 0 -135 -20q-65 -22 -116 -62q-53 -42 -88 -119q-38 -84 -46 -180h594q15 0 25 -10t10 -23q-2 -2 -2 -4v-4l-14 -57q-12 -41 -41 -41h-576v-166h527q14 0 22 -8t8 -23q-2 -2 -2 -4v-6l-14 -57
q-12 -41 -41 -41h-498q6 -81 31 -152q23 -65 62 -110q44 -51 86 -74q59 -32 98 -41q52 -12 110 -12q96 0 306 16h8q33 0 33 -33v-84q0 -35 -41 -41q-15 -3 -43.5 -8t-38.5 -6q-62 -7 -84 -8q-78 -4 -142 -4q-71 0 -149 16q-71 14 -148 57q-73 40 -131 101q-54 57 -96 159
q-38 92 -47 224h-68q-16 0 -28 12q-13 13 -13 29z" />
    <glyph glyph-name="trademark" unicode="&#x2122;" horiz-adv-x="1615" 
d="M51 1440v51q0 12 10 22q9 9 23 9h530q13 0 25 -9q10 -8 10 -22v-51q0 -14 -10 -21q-12 -8 -25 -8h-198v-690q0 -13 -10 -23t-23 -10h-66q-12 0 -22 10q-8 8 -8 23v690h-203q-11 0 -23 8q-10 7 -10 21zM723 709v759q0 20 6 29q4 7 25 10q208 21 372 21q94 0 129 -4
q43 -5 101 -19q46 -11 78 -37q34 -27 53 -61q26 -47 33 -86q10 -58 10 -121v-491q0 -9 -6 -15t-15 -6h-84q-20 0 -20 21v491q0 54 -2 72q-4 38 -10 55q-7 22 -21 39q-10 12 -39 27q-21 11 -59 14q-46 4 -84 4v-702q0 -9 -6 -15t-15 -6h-86q-20 0 -20 21v702q-103 0 -217 -12
v-690q0 -21 -19 -21h-84q-20 0 -20 21z" />
    <glyph glyph-name="uniE000" unicode="&#xe000;" horiz-adv-x="1124" 
d="M0 0v1126h1126v-1126h-1126z" />
    <glyph glyph-name="uniFB03" unicode="&#xfb03;" horiz-adv-x="1937" 
d="M51 1034v56q0 18 10 26q13 10 29 10h199v148q0 156 71 221q70 64 215 64q52 0 115 -13q39 -9 39 -33v-67q0 -31 -37 -31h-98q-72 0 -98 -29q-27 -30 -27 -112v-148h473v148q0 155 72 221q70 64 215 64q51 0 114 -13q39 -9 39 -33v-67q0 -31 -36 -31h-99q-72 0 -98 -29
q-27 -30 -27 -112v-148h613q16 0 28 -12q13 -13 13 -29v-1044q0 -16 -13 -29q-12 -12 -28 -12h-99q-16 0 -28 12q-13 13 -13 29v934h-473v-934q0 -17 -12 -29t-27 -12h-100q-17 0 -29 12t-12 29v934h-473v-934q0 -17 -12 -29t-27 -12h-100q-17 0 -29 12t-12 29v934l-199 22
q-15 3 -29 13q-10 7 -10 24zM1593 1348v163q0 16 13 29q12 12 28 12h105q16 0 28 -12q13 -13 13 -29v-163q0 -16 -13 -29q-12 -12 -28 -12h-105q-16 0 -28 12q-13 13 -13 29z" />
    <glyph glyph-name="uniFB04" unicode="&#xfb04;" horiz-adv-x="1931" 
d="M51 1034v56q0 18 10 26q13 10 29 10h199v148q0 156 71 221q70 64 215 64q52 0 115 -13q39 -9 39 -33v-67q0 -31 -37 -31h-98q-72 0 -98 -29q-27 -30 -27 -112v-148h473v148q0 155 78 221q76 64 221 64q224 0 389 -19h107q16 0 26 -10q11 -11 11 -29v-1460q0 -14 -11 -29
q-9 -12 -26 -12h-107q-14 0 -26 12q-11 11 -11 29v1374h-333q-78 0 -107 -29q-31 -31 -31 -112v-148h215q16 0 29 -10q10 -8 10 -26v-80q0 -18 -10 -25q-13 -10 -29 -10h-215v-934q0 -17 -12 -29t-27 -12h-100q-17 0 -29 12t-12 29v934h-473v-934q0 -17 -12 -29t-27 -12
h-100q-17 0 -29 12t-12 29v934l-199 22q-15 3 -29 13q-10 7 -10 24z" />
  </font>
</defs>
</svg>
